Download The Comeback Trail 2020 HDRip XviD B4ND1T69 torrent - GloDLS
Login
Username:
Password:
Remember Me:
[Signup]
[Recover Account]
Friends
Angie Torrents
Friendly Site

Pirateiro
Friendly site

Free Courses Online
Friendly site

ETTV
Friendly site

ProStyleX
Friendly site

KaranPC
Friendly site

P2PDL.com
Friendly site

OneHack
Friendly site

IGGGames
Friendly site

Torrent Details For "The Comeback Trail 2020 HDRip XviD B4ND1T69"

The Comeback Trail 2020 HDRip XviD B4ND1T69

To download this torrent, you need a BitTorrent client: Vuze or BTGuard
Download this torrent
Download using Magnet Link

Health:
Seeds: 56
Leechers: 11
Completed: 151 
Last Checked: 04-05-2021 23:37:38

Uploader Reputation points : 776
External: Torrent






Write a Review for the Uploader:   0   Say Thanks with one good review:
Share on Facebook


Details
Name:The Comeback Trail 2020 HDRip XviD B4ND1T69
Description:
The.Comeback.Trail.2020.HDRip.XviD.B4ND1T69



Director: George Gallo
Writers: George Gallo (screenplay by), Josh Posner (screenplay by)
Stars: Robert De Niro, Tommy Lee Jones, Morgan Freeman

Plot/Story:
Two movie producers who owe money to the mob set up their aging movie star for an insurance scam to try and save themselves. But they wind up getting more than they ever imagined.

General
Complete name               : The.Comeback.Trail.2020.HDRip.XviD.B4ND1T69.avi
Format                      : AVI
Format/Info                 : Audio Video Interleave
File size                   : 1.03 GiB
Duration                    : 1 h 43 min
Overall bit rate            : 1 431 kb/s
Subtitles                   : Yes...Included

Video
ID                          : 0
Format                      : MPEG-4 Visual
Format profile              : Advanced [email protected]
Format settings, BVOP       : 2
Format settings, QPel       : No
Format settings, GMC        : No warppoints
Format settings, Matrix     : Default (H.263)
Codec ID                    : XVID
Codec ID/Hint               : XviD
Duration                    : 1 h 43 min
Bit rate                    : 1 290 kb/s
Width                       : 720 pixels
Height                      : 304 pixels
Display aspect ratio        : 2.35:1
Frame rate                  : 24.000 FPS
Color space                 : YUV
Chroma subsampling          : 4:2:0
Bit depth                   : 8 bits
Scan type                   : Progressive
Compression mode            : Lossy
Bits/(Pixel*Frame)          : 0.246
Stream size                 : 952 MiB (90%)
Writing library             : XviD 64

Audio
ID                          : 1
Format                      : MPEG Audio
Format version              : Version 1
Format profile              : Layer 3
Codec ID                    : 55
Codec ID/Hint               : MP3
Duration                    : 1 h 43 min
Bit rate mode               : Constant
Bit rate                    : 128 kb/s
Channel(s)                  : 2 channels
Sampling rate               : 48.0 kHz
Compression mode            : Lossy
Stream size                 : 94.5 MiB (9%)
Alignment                   : Aligned on interleaves
Interleave, duration        : 24  ms (0.58 video frame)

Screenshots:










Please Seed For As Long As Possible
Or At Least 1:1 Ratio...Thanks
Enjoy Peeps
YouTube Video:   
Category:Movies
Language:English  English
Total Size:1.03 GB
Info Hash:1EA60BF436B6B21947AF1E254A879870C7825976
Added By:B4ND1T69 Verified UploaderMovie Pirate
Date Added:2021-05-04 21:22:27
Torrent Status:Torrent Verified


Ratings:Not Yet Rated (Log in to rate it)


Tracker:
udp://tracker.opentrackr.org:1337/announce

This Torrent also has backup trackers
URLSeedersLeechersCompleted
udp://tracker.opentrackr.org:1337/announce10233
udp://exodus.desync.com:6969/announce5111
udp://open.demonii.si:1337/announce000
udp://9.rarbg.to:2750/announce7126
udp://open.stealth.si:80/announce3110
udp://tracker.uw0.xyz:6969/announce6110
udp://tracker.tiny-vps.com:6969/announce617
udp://fasttracker.foreverpirates.co:6969/announce000
udp://explodie.org:6969/announce100
udp://tracker.cyberia.is:6969/announce000
udp://ipv4.tracker.harry.lu:80/announce000
udp://opentracker.i2p.rocks:6969/announce7129
udp://tracker.moeking.me:6969/announce5212
udp://opentor.org:2710/announce6113
udp://tracker.dler.org:6969/announce000


File List: 





Comments
No comments still posted