Download The Courier 2020 HDRip XviD B4ND1T69 torrent - GloDLS
Login
Username:
Password:
Remember Me:
[Signup]
[Recover Account]
Friends
Angie Torrents
Friendly Site

Pirateiro
Friendly site

Free Courses Online
Friendly site

ETTV
Friendly site

ProStyleX
Friendly site

KaranPC
Friendly site

P2PDL.com
Friendly site

OneHack
Friendly site

IGGGames
Friendly site

Torrent Details For "The Courier 2020 HDRip XviD B4ND1T69"

The Courier 2020 HDRip XviD B4ND1T69

To download this torrent, you need a BitTorrent client: Vuze or BTGuard
Download this torrent
Download using Magnet Link

Health:
Seeds: 35
Leechers: 1
Completed: 633 
Last Checked: 13-05-2021 07:00:24

Uploader Reputation points : 778
External: Torrent






Write a Review for the Uploader:   0   Say Thanks with one good review:
Share on Facebook


Details
Name:The Courier 2020 HDRip XviD B4ND1T69
Description:
The.Courier.2020.HDRip.XviD.B4ND1T69



Director: Dominic Cooke
Writer: Tom O'Connor
Stars: Benedict Cumberbatch, Merab Ninidze, Rachel Brosnahan

Plot/Story:
Cold War spy Greville Wynne and his Russian source try to put an end to the Cuban Missile Crisis.

General
Complete name               : The.Courier.2020.HDRip.XviD.B4ND1T69.avi
Format                      : AVI
Format/Info                 : Audio Video Interleave
File size                   : 611 MiB
Duration                    : 1 h 52 min
Overall bit rate            : 763 kb/s
Subtitles                   : Yes...Hardcoded for non-English parts + file included(HI)

Video
ID                          : 0
Format                      : MPEG-4 Visual
Format profile              : Advanced [email protected]
Format settings, BVOP       : 2
Format settings, QPel       : No
Format settings, GMC        : No warppoints
Format settings, Matrix     : Default (H.263)
Codec ID                    : XVID
Codec ID/Hint               : XviD
Duration                    : 1 h 52 min
Bit rate                    : 622 kb/s
Width                       : 720 pixels
Height                      : 304 pixels
Display aspect ratio        : 2.35:1
Frame rate                  : 23.976 (24000/1001) FPS
Color space                 : YUV
Chroma subsampling          : 4:2:0
Bit depth                   : 8 bits
Scan type                   : Progressive
Compression mode            : Lossy
Bits/(Pixel*Frame)          : 0.118
Stream size                 : 498 MiB (82%)
Writing library             : XviD 64

Audio
ID                          : 1
Format                      : MPEG Audio
Format version              : Version 1
Format profile              : Layer 3
Codec ID                    : 55
Codec ID/Hint               : MP3
Duration                    : 1 h 52 min
Bit rate mode               : Constant
Bit rate                    : 128 kb/s
Channel(s)                  : 2 channels
Sampling rate               : 48.0 kHz
Compression mode            : Lossy
Stream size                 : 103 MiB (17%)
Alignment                   : Aligned on interleaves
Interleave, duration        : 24  ms (0.58 video frame)

Screenshots:










Please Seed For As Long As Possible
Or At Least 1:1 Ratio...Thanks
Enjoy Peeps
YouTube Video:   
Category:Movies
Language:English  English
Total Size:611.04 MB
Info Hash:0E7656BDB8403A476F215034A6C8421AE38C46BE
Added By:B4ND1T69 Verified UploaderMovie Pirate
Date Added:2021-05-04 18:18:22
Torrent Status:Torrent Verified


Ratings:Not Yet Rated (Log in to rate it)


Tracker:
udp://tracker.opentrackr.org:1337/announce

This Torrent also has backup trackers
URLSeedersLeechersCompleted
udp://tracker.opentrackr.org:1337/announce70188
udp://exodus.desync.com:6969/announce3065
udp://open.demonii.si:1337/announce000
udp://9.rarbg.to:2750/announce3148
udp://open.stealth.si:80/announce3077
udp://tracker.uw0.xyz:6969/announce3072
udp://tracker.tiny-vps.com:6969/announce000
udp://fasttracker.foreverpirates.co:6969/announce2036
udp://explodie.org:6969/announce200
udp://tracker.cyberia.is:6969/announce000
udp://ipv4.tracker.harry.lu:80/announce200
udp://opentracker.i2p.rocks:6969/announce40116
udp://tracker.moeking.me:6969/announce307
udp://opentor.org:2710/announce3024
udp://tracker.dler.org:6969/announce000


File List: 





Comments
No comments still posted