Download The Forever Purge 2021 HDRip XviD B4ND1T69 torrent - GloDLS
HTML tutorial
Torrent Details For "The Forever Purge 2021 HDRip XviD B4ND1T69"

The Forever Purge 2021 HDRip XviD B4ND1T69

To download this torrent, you need a BitTorrent client: Vuze or BTGuard
Download this torrent
Download using Magnet Link

Health:
Seeds: 241
Leechers: 2
Completed: 2,971 
Last Checked: 27-07-2021 16:46:46

Uploader Reputation points : 1034





Write a Review for the Uploader:   0   Say Thanks with one good review:
Share on Facebook


Details
Name:The Forever Purge 2021 HDRip XviD B4ND1T69
Description:
The.Forever.Purge.2021.HDRip.XviD.B4ND1T69



Director: Everardo Gout
Writer: James DeMonaco(based on characters created by)
Stars: Ana de la Reguera, Tenoch Huerta, Josh Lucas

Plot/Story:
All the rules are broken as a sect of lawless marauders decides that the annual Purge does not stop at daybreak and instead should never end.

General
Complete name               : The.Forever.Purge.2021.HDRip.XviD.B4ND1T69.avi
Format                      : AVI
Format/Info                 : Audio Video Interleave
File size                   : 999 MiB
Duration                    : 1 h 43 min
Overall bit rate            : 1 350 kb/s
Subtitles                   : Yes...Hardcoded for non-English parts + file included(HI)

Video
ID                          : 0
Format                      : MPEG-4 Visual
Format profile              : Advanced [email protected]
Format settings, BVOP       : 2
Format settings, QPel       : No
Format settings, GMC        : No warppoints
Format settings, Matrix     : Default (H.263)
Codec ID                    : XVID
Codec ID/Hint               : XviD
Duration                    : 1 h 43 min
Bit rate                    : 1 209 kb/s
Width                       : 720 pixels
Height                      : 390 pixels
Display aspect ratio        : 1.85:1
Frame rate                  : 23.976 (24000/1001) FPS
Color space                 : YUV
Chroma subsampling          : 4:2:0
Bit depth                   : 8 bits
Scan type                   : Progressive
Compression mode            : Lossy
Bits/(Pixel*Frame)          : 0.180
Stream size                 : 895 MiB (90%)
Writing library             : XviD 64

Audio
ID                          : 1
Format                      : MPEG Audio
Format version              : Version 1
Format profile              : Layer 3
Codec ID                    : 55
Codec ID/Hint               : MP3
Duration                    : 1 h 43 min
Bit rate mode               : Constant
Bit rate                    : 128 kb/s
Channel(s)                  : 2 channels
Sampling rate               : 48.0 kHz
Compression mode            : Lossy
Stream size                 : 94.7 MiB (9%)
Alignment                   : Aligned on interleaves
Interleave, duration        : 24  ms (0.58 video frame)

Screenshots:










Please Seed For As Long As Possible
Or At Least 1:1 Ratio...Thanks
Enjoy Peeps
YouTube Video:   
Category:Movies
Language:English  English
Total Size:999.52 MB
Info Hash:97DBCD00A269CF8EB4185A8BB20977AB88C29410
Added By:B4ND1T69 Verified UploaderMovie Pirate
Date Added:2021-07-18 22:32:26
Torrent Status:Torrent Verified


Ratings:Not Yet Rated (Log in to rate it)


Tracker:
udp://tracker.opentrackr.org:1337/announce

This Torrent also has backup trackers
URLSeedersLeechersCompleted
udp://tracker.opentrackr.org:1337/announce3321,042
udp://exodus.desync.com:6969/announce19023
udp://9.rarbg.to:2750/announce230204
udp://open.stealth.si:80/announce240407
udp://tracker.uw0.xyz:6969/announce260377
udp://tracker.tiny-vps.com:6969/announce000
udp://fasttracker.foreverpirates.co:6969/announce140145
udp://opentracker.i2p.rocks:6969/announce25030
udp://tracker.moeking.me:6969/announce190378
udp://tracker.dler.org:6969/announce100
udp://tracker.zerobytes.xyz:1337/announce2503
udp://p4p.arenabg.com:1337/announce260362
udp://tracker.army:6969/announce600


File List: 





Comments

[Report] Posted: 21-07-2021 at 04:59:30
Portos

avatar

profile message
Thx