Download The Gentlemen S01 COMPLETE 2160p WEB-DL DV HDR DDP5 1 Atmos H265 MP4-BEN THE MEN torrent - GloDLS
Torrent Details For "The Gentlemen S01 COMPLETE 2160p WEB-DL DV HDR DDP5 1 Atmos H265 MP4-BEN THE MEN"

The Gentlemen S01 COMPLETE 2160p WEB-DL DV HDR DDP5 1 Atmos H265 MP4-BEN THE MEN

To download this torrent, you need a BitTorrent client: Vuze or BTGuard
Download this torrent
Download using Magnet Link

Health:
Seeds: 84
Leechers: 143
Completed: 1,981 
Last Checked: 10-04-2024 02:35:52

Uploader Reputation points : 618





Write a Review for the Uploader:   0   Say Thanks with one good review:
Share on Facebook
TV Info

The Gentlemen

When aristocratic Eddie inherits the family estate, he discovers that it's home to an enormous weed empire — and its proprietors aren't going anywhere.



Details
Name:The Gentlemen S01 COMPLETE 2160p WEB-DL DV HDR DDP5 1 Atmos H265 MP4-BEN THE MEN
Description:
The.Gentlemen.S01.COMPLETE.2160p.WEB-DL.DV.HDR.DDP5.1.Atmos.H265.MP4-BEN.THE.MEN

https://www.imdb.com/title/tt13210838/

When aristocratic Eddie inherits the family estate, he discovers that it's home to a huge weed empire, and its proprietors aren't going anywhere.

ENG SUB ONLY







Format                                   : MPEG-4
Format profile                           : Base Media
Codec ID                                 : isom (isom/dby1/iso2/mp41)
File size                                : 5.41 GiB
Duration                                 : 1 h 7 min
Overall bit rate mode                    : Variable
Overall bit rate                         : 11.5 Mb/s
Frame rate                               : 24.000 FPS
Movie name                               : The.Gentlemen.S01E01.2160p.WEB-DL.DV.HDR[Ben The Men]
Encoded date                             : 2024-04-03 04:52:12 UTC
Tagged date                              : 2024-04-03 04:52:12 UTC
Writing application                      : Lavf60.23.100

Video
ID                                       : 1
Format                                   : HEVC
Format/Info                              : High Efficiency Video Coding
Format profile                           : Main 10@L5@Main
HDR format                               : Dolby Vision, Version 1.0, Profile 8.1, dvhe.08.06, BL+RPU, no metadata compression, HDR10 compatible / SMPTE ST 2086, Version HDR10, HDR10 compatible
Codec ID                                 : hev1
Codec ID/Info                            : High Efficiency Video Coding
Duration                                 : 1 h 7 min
Bit rate                                 : 10.8 Mb/s
Width                                    : 3 840 pixels
Height                                   : 2 160 pixels
Display aspect ratio                     : 16:9
Frame rate mode                          : Variable
Frame rate                               : 24.000 FPS
Minimum frame rate                       : 22.727 FPS
Maximum frame rate                       : 24.390 FPS
Color space                              : YUV
Chroma subsampling                       : 4:2:0 (Type 2)
Bit depth                                : 10 bits
Bits/(Pixel*Frame)                       : 0.054
Stream size                              : 5.05 GiB (93%)
Language                                 : English
Encoded date                             : 2024-04-03 04:52:12 UTC
Tagged date                              : 2024-04-03 04:52:12 UTC
Color range                              : Limited
Color primaries                          : BT.2020
Transfer characteristics                 : PQ
Matrix coefficients                      : BT.2020 non-constant
Mastering display color primaries        : Display P3
Mastering display luminance              : min: 0.0001 cd/m2, max: 1000 cd/m2
Maximum Content Light Level              : 122 cd/m2
Maximum Frame-Average Light Level        : 59 cd/m2
Menus                                    : 5
Codec configuration box                  : hvcC+dvvC

Audio
ID                                       : 2
Format                                   : E-AC-3 JOC
Format/Info                              : Enhanced AC-3 with Joint Object Coding
Commercial name                          : Dolby Digital Plus with Dolby Atmos
Codec ID                                 : ec-3
Duration                                 : 1 h 7 min
Bit rate mode                            : Constant
Bit rate                                 : 768 kb/s
Channel(s)                               : 6 channels

Channel layout                           : L R C LFE Ls Rs
Sampling rate                            : 48.0 kHz
Frame rate                               : 31.250 FPS (1536 SPF)
Compression mode                         : Lossy
Stream size                              : 369 MiB (7%)
Title                                    : BTM DDP5.1 Atmos
Language                                 : English

Service kind                             : Complete Main
Default                                  : Yes
Alternate group                          : 1
Encoded date                             : 2024-04-03 04:52:12 UTC
Tagged date                              : 2024-04-03 04:52:12 UTC
Menus                                    : 5
Complexity index                         : Not present / 16
Number of dynamic objects                : 15
Bed channel count                        : 1 channel
Bed channel configuration                : LFE
YouTube Video:   
Category:TV
Language:English  English
Total Size:33.18 GB
Info Hash:68D70424BAA04AC448005A9D8F1C4463AC94C68B
Added By:Freddy1714 Verified Uploader
Date Added:2024-04-03 14:36:07
Torrent Status:Torrent Verified


Ratings:Not Yet Rated (Log in to rate it)


Tracker:
udp://tracker.opentrackr.org:1337/announce

This Torrent also has backup trackers
URLSeedersLeechersCompleted
udp://tracker.opentrackr.org:1337/announce2231638
udp://open.stealth.si:80/announce2132566
udp://tracker.torrent.eu.org:451/announce2029559
http://bt.okmp3.ru:2710/announce536
udp://6ahddutb1ucc3cp.ru:6969/announce000
https://tracker.tamersunion.org:443/announce510
http://tracker.vraphim.com:6969/announce000
udp://tracker.cyberia.is:6969/announce330000
http://tracker2.dler.org:80/announce080
udp://exodus.desync.com:6969/announce724196
udp://tracker.tiny-vps.com:6969/announce41516


File List: 





Comments
No comments still posted