Download The Island 2005 1080p BluRay ENG LATINO DTS-HD Master 5 1 H264-BEN THE MEN torrent - GloDLS
Login
Username:
Password:
Remember Me:
[Signup]
[Recover Account]
Friends
Angie Torrents
Friendly Site

Get Into Way
Friendly site

Free Courses Online
Friendly site

KaranPC
Friendly site

OneHack
Friendly site

IGGGames
Friendly site

Torrent Details For "The Island 2005 1080p BluRay ENG LATINO DTS-HD Master 5 1 H264-BEN THE MEN"

The Island 2005 1080p BluRay ENG LATINO DTS-HD Master 5 1 H264-BEN THE MEN

To download this torrent, you need a BitTorrent client: Vuze or BTGuard
Download this torrent
Download using Magnet Link

Health:
Seeds: 193
Leechers: 99
Completed: 558 
Last Checked: 11-06-2024 03:20:11

Uploader Reputation points : 1119





Write a Review for the Uploader:   0   Say Thanks with one good review:
Share on Facebook


Details
Name:The Island 2005 1080p BluRay ENG LATINO DTS-HD Master 5 1 H264-BEN THE MEN
Description:
The.Island.2005.1080p.BluRay.ENG.LATINO.DTS-HD.Master.5.1.H264-BEN.THE.MEN

https://www.youtube.com/watch?v=_ZyNJ3cKfEg

https://www.imdb.com/title/tt0399201/

A man living in a futuristic sterile colony begins to question his circumscribed existence when his friend is chosen to go to the Island, the last uncontaminated place on earth.

ENG ESP SUBS







Format                                   : Matroska
Format version                           : Version 4
File size                                : 13.8 GiB
Duration                                 : 2 h 16 min
Overall bit rate mode                    : Variable
Overall bit rate                         : 14.6 Mb/s
Frame rate                               : 23.976 FPS
Movie name                               : The.Island.2005.1080p.BluRay[Ben The Men]
Encoded date                             : 2024-06-10 20:46:45 UTC
Writing application                      : mkvmerge v85.0 ('Shame For You') 64-bit
Writing library                          : libebml v1.4.5 + libmatroska v1.7.1
Attachments                              : BEN.THE.MEN.TORRENTS.jpg

Video
ID                                       : 1
Format                                   : AVC
Format/Info                              : Advanced Video Codec
Format profile                           : High@L4
Format settings                          : CABAC / 4 Ref Frames
Format settings, CABAC                   : Yes
Format settings, Reference frames        : 4 frames
Codec ID                                 : V_MPEG4/ISO/AVC
Duration                                 : 2 h 16 min
Bit rate                                 : 9 000 kb/s
Width                                    : 1 920 pixels
Height                                   : 1 080 pixels
Display aspect ratio                     : 16:9
Frame rate mode                          : Constant
Frame rate                               : 23.976 (24000/1001) FPS
Color space                              : YUV
Chroma subsampling                       : 4:2:0
Bit depth                                : 8 bits
Scan type                                : Progressive
Bits/(Pixel*Frame)                       : 0.181
Stream size                              : 8.43 GiB (61%)
Title                                    : BEN.THE.MEN
Writing library                          : x264 core 157 r2935 545de2f
Language                                 : English
Default                                  : Yes
Forced                                   : Yes
Color range                              : Limited
Color primaries                          : BT.709
Transfer characteristics                 : BT.709
Matrix coefficients                      : BT.709

Audio #1
ID                                       : 2
Format                                   : DTS XLL
Format/Info                              : Digital Theater Systems
Commercial name                          : DTS-HD Master Audio
Codec ID                                 : A_DTS
Duration                                 : 2 h 16 min
Bit rate mode                            : Variable
Bit rate                                 : 4 391 kb/s
Channel(s)                               : 6 channels
Channel layout                           : C L R Ls Rs LFE
Sampling rate                            : 48.0 kHz
Frame rate                               : 93.750 FPS (512 SPF)
Bit depth                                : 24 bits
Compression mode                         : Lossless
Delay relative to video                  : 1 s 1 ms
Stream size                              : 4.17 GiB (30%)
Title                                    : BTM DTS-HD Master
Language                                 : English

Default                                  : Yes
Forced                                   : Yes

Audio #2
ID                                       : 3
Format                                   : AC-3
Format/Info                              : Audio Coding 3
Commercial name                          : Dolby Digital
Codec ID                                 : A_AC3
Duration                                 : 2 h 16 min
Bit rate mode                            : Constant
Bit rate                                 : 640 kb/s
Channel(s)                               : 6 channels
Channel layout                           : L R C LFE Ls Rs
Sampling rate                            : 48.0 kHz
Frame rate                               : 31.250 FPS (1536 SPF)
Compression mode                         : Lossy
Delay relative to video                  : 1 s 1 ms
Stream size                              : 623 MiB (4%)
Title                                    : BTM DD 5.1
Language                                 : English

Service kind                             : Complete Main
Default                                  : No
Forced                                   : No
Dialog Normalization                     : -31 dB
cmixlev                                  : -4.5 dB
surmixlev                                : -6 dB
dialnorm_Average                         : -31 dB
dialnorm_Minimum                         : -31 dB
dialnorm_Maximum                         : -31 dB

Audio #3
ID                                       : 4
Format                                   : AC-3
Format/Info                              : Audio Coding 3
Commercial name                          : Dolby Digital
Codec ID                                 : A_AC3
Duration                                 : 2 h 16 min
Bit rate mode                            : Constant
Bit rate                                 : 640 kb/s
Channel(s)                               : 6 channels
Channel layout                           : L R C LFE Ls Rs
Sampling rate                            : 48.0 kHz
Frame rate                               : 31.250 FPS (1536 SPF)
Compression mode                         : Lossy
Delay relative to video                  : 1 s 1 ms
Stream size                              : 623 MiB (4%)
Title                                    : BTM DD 5.1
Language                                 : Spanish

Service kind                             : Complete Main
Default                                  : No
Forced                                   : No
Dialog Normalization                     : -27 dB
compr                                    : 9.54 dB
dynrng                                   : 5.88 dB
cmixlev                                  : -3.0 dB
surmixlev                                : -3 dB
dialnorm_Average                         : -27 dB
dialnorm_Minimum                         : -27 dB
dialnorm_Maximum                         : -27 dB
YouTube Video:   
Category:Movies
Language:Dubs/Dual Audio
Total Size:13.85 GB
Info Hash:E385EFF9F085DAB258C9BDC11D9EC44AC17AC9A7
Added By:Freddy1714 Verified Uploader
Date Added:2024-06-11 04:53:10
Torrent Status:Torrent Verified


Ratings:Not Yet Rated (Log in to rate it)


Tracker:
udp://tracker.opentrackr.org:1337/announce

This Torrent also has backup trackers
URLSeedersLeechersCompleted
udp://tracker.opentrackr.org:1337/announce5432129
udp://open.stealth.si:80/announce4716122
udp://tracker.torrent.eu.org:451/announce5117124
http://bt.okmp3.ru:2710/announce11522
udp://6ahddutb1ucc3cp.ru:6969/announce000
https://tracker.tamersunion.org:443/announce1080
http://tracker.vraphim.com:6969/announce000
udp://tracker.cyberia.is:6969/announce330000
http://tracker2.dler.org:80/announce4514
udp://exodus.desync.com:6969/announce12541
udp://tracker.tiny-vps.com:6969/announce411106


File List: 





Comments
No comments still posted