Download The King Of Staten Islan 2020 2160p WEB-DL DV HDR ENG CASTELLANO HINDI FRE ITA RUS DDP5 1 Atmos H265 MP4-BEN THE MEN torrent - GloDLS
Login
Username:
Password:
Remember Me:
[Signup]
[Recover Account]
Friends
Angie Torrents
Friendly Site

Get Into Way
Friendly site

Free Courses Online
Friendly site

KaranPC
Friendly site

OneHack
Friendly site

IGGGames
Friendly site

Torrent Details For "The King Of Staten Islan 2020 2160p WEB-DL DV HDR ENG CASTELLANO HINDI FRE ITA RUS DD..."

The King Of Staten Islan 2020 2160p WEB-DL DV HDR ENG CASTELLANO HINDI FRE ITA RUS DD...

To download this torrent, you need a BitTorrent client: Vuze or BTGuard
Download this torrent
Download using Magnet Link

Health:
Seeds: 25
Leechers: 59
Completed: 367 
Last Checked: 13-06-2024 05:10:21

Uploader Reputation points : 1139





Write a Review for the Uploader:   0   Say Thanks with one good review:
Share on Facebook


Details
Name:The King Of Staten Islan 2020 2160p WEB-DL DV HDR ENG CASTELLANO HINDI FRE ITA RUS DD...
Description:
The.King.Of.Staten.Islan.2020.2160p.WEB-DL.DV.HDR.ENG.CASTELLANO.HINDI.FRE.ITA.RUS.DDP5.1.Atmos.H265.MP4-BEN.THE.MEN

https://www.youtube.com/watch?v=azkVr0VUSTA

https://www.imdb.com/title/tt9686708/

Scott has been a case of arrested development since his firefighter dad died. He spends his days smoking weed and dreaming of being a tattoo artist until events force him to grapple with his grief and take his first steps forward in life.

ENG SUBS







Format                                   : MPEG-4
Format profile                           : Base Media
Codec ID                                 : isom (isom/dby1/iso2/mp41)
File size                                : 27.3 GiB
Duration                                 : 2 h 17 min
Overall bit rate mode                    : Variable
Overall bit rate                         : 28.4 Mb/s
Frame rate                               : 23.976 FPS
Movie name                               : The.King.Of.Staten.Islan.2020.2160p.WEB-DL.DV.HDR[Ben The Men]
Tagged date                              : 2024-06-11 08:59:55 UTC
Writing application                      : Lavf60.3.100
Cover                                    : Yes

Video
ID                                       : 1
Format                                   : HEVC
Format/Info                              : High Efficiency Video Coding
Format profile                           : Main 10@L5@High
HDR format                               : Dolby Vision, Version 1.0, Profile 8.1, dvhe.08.06, BL+RPU, no metadata compression, HDR10 compatible / SMPTE ST 2086, Version HDR10, HDR10 compatible
Codec ID                                 : hev1
Codec ID/Info                            : High Efficiency Video Coding
Duration                                 : 2 h 17 min
Bit rate                                 : 24.6 Mb/s
Width                                    : 3 840 pixels
Height                                   : 2 160 pixels
Display aspect ratio                     : 16:9
Frame rate mode                          : Constant
Frame rate                               : 23.976 (24000/1001) FPS
Color space                              : YUV
Chroma subsampling                       : 4:2:0 (Type 2)
Bit depth                                : 10 bits
Bits/(Pixel*Frame)                       : 0.124
Stream size                              : 23.6 GiB (86%)
Title                                    : BEN.THE.MEN
Language                                 : English
Forced                                   : Yes
Tagged date                              : 2024-06-11 08:59:55 UTC
Color range                              : Limited
Color primaries                          : BT.2020
Transfer characteristics                 : PQ
Matrix coefficients                      : BT.2020 non-constant
Mastering display color primaries        : BT.2020
Mastering display luminance              : min: 0.0050 cd/m2, max: 1000 cd/m2
Maximum Content Light Level              : 495 cd/m2
Maximum Frame-Average Light Level        : 49 cd/m2
Codec configuration box                  : hvcC+dvvC

Audio #1
ID                                       : 3
Format                                   : E-AC-3 JOC
Format/Info                              : Enhanced AC-3 with Joint Object Coding
Commercial name                          : Dolby Digital Plus with Dolby Atmos
Codec ID                                 : ec-3
Duration                                 : 2 h 17 min
Bit rate mode                            : Constant
Bit rate                                 : 640 kb/s
Channel(s)                               : 6 channels
Channel layout                           : L R C LFE Ls Rs
Sampling rate                            : 48.0 kHz
Frame rate                               : 31.250 FPS (1536 SPF)
Compression mode                         : Lossy
Stream size                              : 629 MiB (2%)
Title                                    : BTM DDP5.1 Atmos
Language                                 : English

Service kind                             : Complete Main
Default                                  : Yes
Forced                                   : Yes
Alternate group                          : 1
Tagged date                              : 2024-06-11 08:59:55 UTC
Complexity index                         : Not present / 16
Number of dynamic objects                : 15
Bed channel count                        : 1 channel
Bed channel configuration                : LFE
Dialog Normalization                     : -31 dB
compr                                    : -0.28 dB
dmixmod                                  : Lo/Ro
ltrtcmixlev                              : -3.0 dB
ltrtsurmixlev                            : -4.5 dB
lorocmixlev                              : -3.0 dB
lorosurmixlev                            : -4.5 dB
dialnorm_Average                         : -31 dB
dialnorm_Minimum                         : -31 dB
dialnorm_Maximum                         : -31 dB

Audio #2
ID                                       : 4
Format                                   : AC-3
Format/Info                              : Audio Coding 3
Commercial name                          : Dolby Digital
Codec ID                                 : ac-3
Duration                                 : 2 h 17 min
Bit rate mode                            : Constant
Bit rate                                 : 640 kb/s
Channel(s)                               : 6 channels
Channel layout                           : L R C LFE Ls Rs
Sampling rate                            : 48.0 kHz
Frame rate                               : 31.250 FPS (1536 SPF)
Compression mode                         : Lossy
Stream size                              : 628 MiB (2%)
Title                                    : BTM DD 5.1
Language                                 : Spanish

Service kind                             : Complete Main
Default                                  : No
Alternate group                          : 1
Tagged date                              : 2024-06-11 08:59:55 UTC
Dialog Normalization                     : -31 dB
cmixlev                                  : -4.5 dB
surmixlev                                : -6 dB
dialnorm_Average                         : -31 dB
dialnorm_Minimum                         : -31 dB
dialnorm_Maximum                         : -31 dB

Audio #3
ID                                       : 5
Format                                   : AC-3
Format/Info                              : Audio Coding 3
Commercial name                          : Dolby Digital
Codec ID                                 : ac-3
Duration                                 : 2 h 17 min
Bit rate mode                            : Constant
Bit rate                                 : 640 kb/s
Channel(s)                               : 6 channels
Channel layout                           : L R C LFE Ls Rs
Sampling rate                            : 48.0 kHz
Frame rate                               : 31.250 FPS (1536 SPF)
Compression mode                         : Lossy
Stream size                              : 628 MiB (2%)
Title                                    : BTM DD 5.1
Language                                 : Hindi

Service kind                             : Complete Main
Default                                  : No
Alternate group                          : 1
Tagged date                              : 2024-06-11 08:59:55 UTC
Dialog Normalization                     : -31 dB
cmixlev                                  : -4.5 dB
surmixlev                                : -6 dB
dialnorm_Average                         : -31 dB
dialnorm_Minimum                         : -31 dB
dialnorm_Maximum                         : -31 dB

Audio #4
ID                                       : 6
Format                                   : AC-3
Format/Info                              : Audio Coding 3
Commercial name                          : Dolby Digital
Codec ID                                 : ac-3
Duration                                 : 2 h 17 min
Bit rate mode                            : Constant
Bit rate                                 : 640 kb/s
Channel(s)                               : 6 channels
Channel layout                           : L R C LFE Ls Rs
Sampling rate                            : 48.0 kHz
Frame rate                               : 31.250 FPS (1536 SPF)
Compression mode                         : Lossy
Stream size                              : 628 MiB (2%)
Title                                    : BTM DD 5.1
Language                                 : Italian

Service kind                             : Complete Main
Default                                  : No
Alternate group                          : 1
Tagged date                              : 2024-06-11 08:59:55 UTC
Dialog Normalization                     : -31 dB
cmixlev                                  : -4.5 dB
surmixlev                                : -6 dB
dialnorm_Average                         : -31 dB
dialnorm_Minimum                         : -31 dB
dialnorm_Maximum                         : -31 dB

Audio #5
ID                                       : 7
Format                                   : AC-3
Format/Info                              : Audio Coding 3
Commercial name                          : Dolby Digital
Codec ID                                 : ac-3
Duration                                 : 2 h 17 min
Bit rate mode                            : Constant
Bit rate                                 : 640 kb/s
Channel(s)                               : 6 channels
Channel layout                           : L R C LFE Ls Rs
Sampling rate                            : 48.0 kHz
Frame rate                               : 31.250 FPS (1536 SPF)
Compression mode                         : Lossy
Stream size                              : 628 MiB (2%)
Title                                    : BTM DD 5.1
Language                                 : French

Service kind                             : Complete Main
Default                                  : No
Alternate group                          : 1
Tagged date                              : 2024-06-11 08:59:55 UTC
Dialog Normalization                     : -31 dB
cmixlev                                  : -4.5 dB
surmixlev                                : -6 dB
dialnorm_Average                         : -31 dB
dialnorm_Minimum                         : -31 dB
dialnorm_Maximum                         : -31 dB

Audio #6
ID                                       : 8
Format                                   : E-AC-3
Format/Info                              : Enhanced AC-3
Commercial name                          : Dolby Digital Plus
Codec ID                                 : ec-3
Duration                                 : 2 h 17 min
Bit rate mode                            : Constant
Bit rate                                 : 640 kb/s
Channel(s)                               : 6 channels
Channel layout                           : L R C LFE Ls Rs
Sampling rate                            : 48.0 kHz
Frame rate                               : 31.250 FPS (1536 SPF)
Compression mode                         : Lossy
Stream size                              : 629 MiB (2%)
Title                                    : BTM DDP5.1
Language                                 : Russian

Service kind                             : Complete Main
Default                                  : No
Alternate group                          : 1
Tagged date                              : 2024-06-11 08:59:55 UTC
Dialog Normalization                     : -31 dB
compr                                    : -0.28 dB
dialnorm_Average                         : -31 dB
dialnorm_Minimum                         : -31 dB
dialnorm_Maximum                         : -31 dB
YouTube Video:   
Category:Movies
Language:Dubs/Dual Audio
Total Size:27.28 GB
Info Hash:DFD86D7EA6700EB0D1445789E0243EE9800A34F6
Added By:Freddy1714 Verified Uploader
Date Added:2024-06-11 17:14:26
Torrent Status:Torrent Verified


Ratings:Not Yet Rated (Log in to rate it)


Tracker:
udp://tracker.opentrackr.org:1337/announce

This Torrent also has backup trackers
URLSeedersLeechersCompleted
udp://tracker.opentrackr.org:1337/announce61694
udp://open.stealth.si:80/announce61475
udp://tracker.torrent.eu.org:451/announce61683
http://bt.okmp3.ru:2710/announce111
udp://6ahddutb1ucc3cp.ru:6969/announce000
https://tracker.tamersunion.org:443/announce230
http://tracker.vraphim.com:6969/announce000
udp://tracker.cyberia.is:6969/announce330000
http://tracker2.dler.org:80/announce000
udp://exodus.desync.com:6969/announce3542
udp://tracker.tiny-vps.com:6969/announce1472


File List: 





Comments
No comments still posted