Download The Misfits 2021 HC HDRip XviD B4ND1T69 torrent - GloDLS
Login
Username:
Password:
Remember Me:
[Signup]
[Recover Account]
Friends
Angie Torrents
Friendly Site

Pirateiro
Friendly site

Free Courses Online
Friendly site

ETTV
Friendly site

ProStyleX
Friendly site

KaranPC
Friendly site

P2PDL.com
Friendly site

OneHack
Friendly site

IGGGames
Friendly site

Torrent Details For "The Misfits 2021 HC HDRip XviD B4ND1T69"

The Misfits 2021 HC HDRip XviD B4ND1T69

To download this torrent, you need a BitTorrent client: Vuze or BTGuard
Download this torrent
Download using Magnet Link

Health:
Seeds: 954
Leechers: 82
Completed: 8,312 
Last Checked: 12-06-2021 11:03:09

Uploader Reputation points : 886





Write a Review for the Uploader:   0   Say Thanks with one good review:
Share on Facebook


Details
Name:The Misfits 2021 HC HDRip XviD B4ND1T69
Description:
The.Misfits.2021.HC.HDRip.XviD.B4ND1T69



Director: Renny Harlin
Writers: Robert Henny(story by), Kurt Wimmer
Stars: Pierce Brosnan, Jamie Chung, Tim Roth

Plot/Story:
After being recruited by a group of unconventional thieves, renowned criminal Richard Pace finds himself caught up in an elaborate gold heist that promises to have far-reaching implications on his life and the lives of countless others.

General
Complete name               : The.Misfits.2021.HC.HDRip.XviD.B4ND1T69.avi
Format                      : AVI
Format/Info                 : Audio Video Interleave
File size                   : 1.05 GiB
Duration                    : 1 h 34 min
Overall bit rate            : 1 592 kb/s
Subtitles                   : Yes...Hardcoded Korean throughout

Video
ID                          : 0
Format                      : MPEG-4 Visual
Format profile              : Advanced [email protected]
Format settings, BVOP       : 2
Format settings, QPel       : No
Format settings, GMC        : No warppoints
Format settings, Matrix     : Default (H.263)
Codec ID                    : XVID
Codec ID/Hint               : XviD
Duration                    : 1 h 34 min
Bit rate                    : 1 450 kb/s
Width                       : 720 pixels
Height                      : 320 pixels
Display aspect ratio        : 2.25:1
Frame rate                  : 23.976 (24000/1001) FPS
Color space                 : YUV
Chroma subsampling          : 4:2:0
Bit depth                   : 8 bits
Scan type                   : Progressive
Compression mode            : Lossy
Bits/(Pixel*Frame)          : 0.263
Stream size                 : 984 MiB (91%)
Writing library             : XviD 64

Audio
ID                          : 1
Format                      : MPEG Audio
Format version              : Version 1
Format profile              : Layer 3
Codec ID                    : 55
Codec ID/Hint               : MP3
Duration                    : 1 h 34 min
Bit rate mode               : Constant
Bit rate                    : 128 kb/s
Channel(s)                  : 2 channels
Sampling rate               : 48.0 kHz
Compression mode            : Lossy
Stream size                 : 86.8 MiB (8%)
Alignment                   : Aligned on interleaves
Interleave, duration        : 24  ms (0.58 video frame)

Screenshots:










Please Seed For As Long As Possible
Or At Least 1:1 Ratio...Thanks
Enjoy Peeps
YouTube Video:   
Category:Movies
Language:English  English
Total Size:1.05 GB
Info Hash:69F521F248D7B85770B8BB30F9BD0EDBF337B85D
Added By:B4ND1T69 Verified UploaderMovie Pirate
Date Added:2021-06-09 17:02:56
Torrent Status:Torrent Verified


Ratings:Not Yet Rated (Log in to rate it)


Tracker:
udp://tracker.opentrackr.org:1337/announce

This Torrent also has backup trackers
URLSeedersLeechersCompleted
udp://tracker.opentrackr.org:1337/announce148241,873
udp://exodus.desync.com:6969/announce905730
udp://open.demonii.si:1337/announce000
udp://9.rarbg.to:2750/announce122111,739
udp://open.stealth.si:80/announce1038809
udp://tracker.uw0.xyz:6969/announce1064735
udp://tracker.tiny-vps.com:6969/announce000
udp://fasttracker.foreverpirates.co:6969/announce000
udp://explodie.org:6969/announce3140
udp://tracker.cyberia.is:6969/announce000
udp://ipv4.tracker.harry.lu:80/announce2430
udp://opentracker.i2p.rocks:6969/announce134151,166
udp://tracker.moeking.me:6969/announce932497
udp://opentor.org:2710/announce1035763
udp://tracker.dler.org:6969/announce010


File List: 





Comments
No comments still posted