Download The Silencers 1966 HDRip XviD B4ND1T69 torrent - GloDLS
Login
Username:
Password:
Remember Me:
[Signup]
[Recover Account]
Friends
Angie Torrents
Friendly Site

Pirateiro
Friendly site

Free Courses Online
Friendly site

ETTV
Friendly site

ProStyleX
Friendly site

KaranPC
Friendly site

P2PDL.com
Friendly site

OneHack
Friendly site

IGGGames
Friendly site

Torrent Details For "The Silencers 1966 HDRip XviD B4ND1T69"

The Silencers 1966 HDRip XviD B4ND1T69

To download this torrent, you need a BitTorrent client: Vuze or BTGuard
Download this torrent
Download using Magnet Link

Health:
Seeds: 100
Leechers: 42
Completed: 308 
Last Checked: 05-05-2021 03:18:35

Uploader Reputation points : 776
External: Torrent






Write a Review for the Uploader:   0   Say Thanks with one good review:
Share on Facebook


Details
Name:The Silencers 1966 HDRip XviD B4ND1T69
Description:
The.Silencers.1966.HDRip.XviD.B4ND1T69



Director: Phil Karlson
Writers: Donald Hamilton (novels), Oscar Saul (screenplay)
Stars: Dean Martin, Stella Stevens, Daliah Lavi

Plot/Story:
Retired agent Matt Helm is re-activated in order to stop an evil organization from exploding an atom bomb over the USA and starting WWIII.

General
Complete name               : The.Silencers.1966.HDRip.XviD.B4ND1T69.avi
Format                      : AVI
Format/Info                 : Audio Video Interleave
File size                   : 1.25 GiB
Duration                    : 1 h 42 min
Overall bit rate            : 1 741 kb/s
Subtitles                   : Yes...Included(HI)

Video
ID                          : 0
Format                      : MPEG-4 Visual
Format profile              : Advanced [email protected]
Format settings, BVOP       : 2
Format settings, QPel       : No
Format settings, GMC        : No warppoints
Format settings, Matrix     : Default (H.263)
Codec ID                    : XVID
Codec ID/Hint               : XviD
Duration                    : 1 h 42 min
Bit rate                    : 1 600 kb/s
Width                       : 720 pixels
Height                      : 400 pixels
Display aspect ratio        : 16:9
Frame rate                  : 23.976 (24000/1001) FPS
Color space                 : YUV
Chroma subsampling          : 4:2:0
Bit depth                   : 8 bits
Scan type                   : Progressive
Compression mode            : Lossy
Bits/(Pixel*Frame)          : 0.232
Stream size                 : 1.15 GiB (92%)
Writing library             : XviD 64

Audio
ID                          : 1
Format                      : MPEG Audio
Format version              : Version 1
Format profile              : Layer 3
Codec ID                    : 55
Codec ID/Hint               : MP3
Duration                    : 1 h 42 min
Bit rate mode               : Constant
Bit rate                    : 128 kb/s
Channel(s)                  : 2 channels
Sampling rate               : 48.0 kHz
Compression mode            : Lossy
Stream size                 : 93.8 MiB (7%)
Alignment                   : Aligned on interleaves
Interleave, duration        : 24  ms (0.58 video frame)

Screenshots:










Please Seed For As Long As Possible
Or At Least 1:1 Ratio...Thanks
Enjoy Peeps
YouTube Video:   
Category:Movies
Language:English  English
Total Size:1.25 GB
Info Hash:6076D710EE3BDD59106099AB99D6AB0CE201C510
Added By:B4ND1T69 Verified UploaderMovie Pirate
Date Added:2021-05-04 23:10:49
Torrent Status:Torrent Verified


Ratings:Not Yet Rated (Log in to rate it)


Tracker:
udp://tracker.opentrackr.org:1337/announce

This Torrent also has backup trackers
URLSeedersLeechersCompleted
udp://tracker.opentrackr.org:1337/announce16850
udp://exodus.desync.com:6969/announce8324
udp://open.demonii.si:1337/announce000
udp://9.rarbg.to:2750/announce17571
udp://open.stealth.si:80/announce7324
udp://tracker.uw0.xyz:6969/announce7323
udp://tracker.tiny-vps.com:6969/announce6317
udp://fasttracker.foreverpirates.co:6969/announce000
udp://explodie.org:6969/announce420
udp://tracker.cyberia.is:6969/announce000
udp://ipv4.tracker.harry.lu:80/announce320
udp://opentracker.i2p.rocks:6969/announce19750
udp://tracker.moeking.me:6969/announce7326
udp://opentor.org:2710/announce6323
udp://tracker.dler.org:6969/announce000


File List: 





Comments
No comments still posted