Download Three Kings 1999 1080p BluRay REMUX ENG LATINO CASTELLANO FRE ITA GER POR RUS JAP DTS-HD Master DDP5 1 VC1 H264-BEN THE MEN torrent - GloDLS
Torrent Details For "Three Kings 1999 1080p BluRay REMUX ENG LATINO CASTELLANO FRE ITA GER POR RUS JAP DTS..."

Three Kings 1999 1080p BluRay REMUX ENG LATINO CASTELLANO FRE ITA GER POR RUS JAP DTS...

To download this torrent, you need a BitTorrent client: Vuze or BTGuard
Download this torrent
Download using Magnet Link

Health:
Seeds: 145
Leechers: 172
Completed: 394 
Last Checked: 02-04-2024 22:30:04

Uploader Reputation points : 682





Write a Review for the Uploader:   0   Say Thanks with one good review:
Share on Facebook


Details
Name:Three Kings 1999 1080p BluRay REMUX ENG LATINO CASTELLANO FRE ITA GER POR RUS JAP DTS...
Description:
Three.Kings.1999.1080p.BluRay.REMUX.ENG.LATINO.CASTELLANO.FRE.ITA.GER.POR.RUS.JAP.DTS-HD.Master.DDP5.1.VC1.H264-BEN.THE.MEN

https://www.imdb.com/title/tt0120188/

In the aftermath of the Persian Gulf War, four soldiers set out to steal gold that was stolen from Kuwait, but they discover people who desperately need their help.

English, Spanish, French, German, Italian, Dutch, Chinese, Portuguese, Bulgarian, Croatian, Danish, Finnish, Greek, Hebrew, Norwegian, Portuguese, Romanian, Russian, Slovenian, Swedish, Japanese







Format                                   : Matroska
Format version                           : Version 4
File size                                : 26.2 GiB
Duration                                 : 1 h 54 min
Overall bit rate mode                    : Variable
Overall bit rate                         : 32.7 Mb/s
Frame rate                               : 23.976 FPS
Movie name                               : Three.Kings.1999.1080p.BluRay.REMUX[Ben The Men]
Encoded date                             : 2024-04-02 11:48:44 UTC
Writing application                      : mkvmerge v83.0 ('Circle Of Friends') 64-bit
Writing library                          : libebml v1.4.5 + libmatroska v1.7.1

Video
ID                                       : 1
Format                                   : VC-1
Format profile                           : Advanced@L3
Codec ID                                 : V_MS/VFW/FOURCC / WVC1
Codec ID/Hint                            : Microsoft
Duration                                 : 1 h 54 min
Bit rate                                 : 23.0 Mb/s
Width                                    : 1 920 pixels
Height                                   : 1 080 pixels
Display aspect ratio                     : 16:9
Frame rate mode                          : Constant
Frame rate                               : 23.976 (24000/1001) FPS
Color space                              : YUV
Chroma subsampling                       : 4:2:0
Bit depth                                : 8 bits
Scan type                                : Progressive
Compression mode                         : Lossy
Bits/(Pixel*Frame)                       : 0.463
Stream size                              : 18.4 GiB (70%)
Title                                    : BEN.THE.MEN / Three.Kings.1999.1080p.BluRay.REMUX[Ben The Men]
Language                                 : English
Default                                  : Yes
Forced                                   : No

Audio #1
ID                                       : 2
Format                                   : DTS XLL
Format/Info                              : Digital Theater Systems
Commercial name                          : DTS-HD Master Audio
Codec ID                                 : A_DTS
Duration                                 : 1 h 54 min
Bit rate mode                            : Variable
Bit rate                                 : 4 161 kb/s
Channel(s)                               : 6 channels

Channel layout                           : C L R Ls Rs LFE
Sampling rate                            : 48.0 kHz
Frame rate                               : 93.750 FPS (512 SPF)
Bit depth                                : 24 bits
Compression mode                         : Lossless
Stream size                              : 3.34 GiB (13%)
Title                                    : BTM DTS-HD Master
Language                                 : English

Default                                  : Yes
Forced                                   : No

Audio #2
ID                                       : 3
Format                                   : E-AC-3
Format/Info                              : Enhanced AC-3
Commercial name                          : Dolby Digital Plus
Codec ID                                 : A_EAC3
Duration                                 : 1 h 54 min
Bit rate mode                            : Constant
Bit rate                                 : 960 kb/s
Channel(s)                               : 6 channels

Channel layout                           : L R C LFE Ls Rs
Sampling rate                            : 48.0 kHz
Frame rate                               : 31.250 FPS (1536 SPF)
Compression mode                         : Lossy
Stream size                              : 788 MiB (3%)
Title                                    : BTM DDP5.1
Language                                 : English

Service kind                             : Complete Main
Default                                  : Yes
Forced                                   : No

Audio #3
ID                                       : 4
Format                                   : AC-3
Format/Info                              : Audio Coding 3
Commercial name                          : Dolby Digital
Format settings                          : Dolby Surround
Codec ID                                 : A_AC3
Duration                                 : 1 h 54 min
Bit rate mode                            : Constant
Bit rate                                 : 192 kb/s
Channel(s)                               : 2 channels

Channel layout                           : L R
Sampling rate                            : 48.0 kHz
Frame rate                               : 31.250 FPS (1536 SPF)
Compression mode                         : Lossy
Stream size                              : 158 MiB (1%)
Title                                    : BTM DD 5.1
Language                                 : Spanish

Service kind                             : Complete Main
Default                                  : Yes
Forced                                   : No

Audio #4
ID                                       : 5
Format                                   : AC-3
Format/Info                              : Audio Coding 3
Commercial name                          : Dolby Digital
Codec ID                                 : A_AC3
Duration                                 : 1 h 54 min
Bit rate mode                            : Constant
Bit rate                                 : 640 kb/s
Channel(s)                               : 6 channels

Channel layout                           : L R C LFE Ls Rs
Sampling rate                            : 48.0 kHz
Frame rate                               : 31.250 FPS (1536 SPF)
Compression mode                         : Lossy
Stream size                              : 525 MiB (2%)
Title                                    : BTM DD 5.1
Language                                 : Spanish

Service kind                             : Complete Main
Default                                  : Yes
Forced                                   : No
AC3_metadata cmixlev                     : -3.0 dB
surmixlev                               : -3 dB

Audio #5
ID                                       : 6
Format                                   : AC-3
Format/Info                              : Audio Coding 3
Commercial name                          : Dolby Digital
Codec ID                                 : A_AC3
Duration                                 : 1 h 54 min
Bit rate mode                            : Constant
Bit rate                                 : 640 kb/s
Channel(s)                               : 6 channels

Channel layout                           : L R C LFE Ls Rs
Sampling rate                            : 48.0 kHz
Frame rate                               : 31.250 FPS (1536 SPF)
Compression mode                         : Lossy
Stream size                              : 525 MiB (2%)
Title                                    : BTM DD 5.1
Language                                 : French

Service kind                             : Complete Main
Default                                  : Yes
Forced                                   : No
AC3_metadata cmixlev                     : -3.0 dB
surmixlev                               : -3 dB

Audio #6
ID                                       : 7
Format                                   : AC-3
Format/Info                              : Audio Coding 3
Commercial name                          : Dolby Digital
Codec ID                                 : A_AC3
Duration                                 : 1 h 54 min
Bit rate mode                            : Constant
Bit rate                                 : 640 kb/s
Channel(s)                               : 6 channels

Channel layout                           : L R C LFE Ls Rs
Sampling rate                            : 48.0 kHz
Frame rate                               : 31.250 FPS (1536 SPF)
Compression mode                         : Lossy
Stream size                              : 525 MiB (2%)
Title                                    : BTM DD 5.1
Language                                 : German

Service kind                             : Complete Main
Default                                  : Yes
Forced                                   : No
AC3_metadata cmixlev                     : -3.0 dB
surmixlev                               : -3 dB

Audio #7
ID                                       : 8
Format                                   : AC-3
Format/Info                              : Audio Coding 3
Commercial name                          : Dolby Digital
Codec ID                                 : A_AC3
Duration                                 : 1 h 54 min
Bit rate mode                            : Constant
Bit rate                                 : 640 kb/s
Channel(s)                               : 6 channels

Channel layout                           : L R C LFE Ls Rs
Sampling rate                            : 48.0 kHz
Frame rate                               : 31.250 FPS (1536 SPF)
Compression mode                         : Lossy
Stream size                              : 525 MiB (2%)
Title                                    : BTM DD 5.1
Language                                 : Italian

Service kind                             : Complete Main
Default                                  : Yes
Forced                                   : No
AC3_metadata cmixlev                     : -3.0 dB
surmixlev                               : -3 dB

Audio #8
ID                                       : 9
Format                                   : AC-3
Format/Info                              : Audio Coding 3
Commercial name                          : Dolby Digital
Format settings                          : Dolby Surround
Codec ID                                 : A_AC3
Duration                                 : 1 h 54 min
Bit rate mode                            : Constant
Bit rate                                 : 192 kb/s
Channel(s)                               : 2 channels

Channel layout                           : L R
Sampling rate                            : 48.0 kHz
Frame rate                               : 31.250 FPS (1536 SPF)
Compression mode                         : Lossy
Stream size                              : 158 MiB (1%)
Title                                    : BTM DD 5.1
Language                                 : Portuguese

Service kind                             : Complete Main
Default                                  : Yes
Forced                                   : No

Audio #9
ID                                       : 10
Format                                   : AC-3
Format/Info                              : Audio Coding 3
Commercial name                          : Dolby Digital
Codec ID                                 : A_AC3
Duration                                 : 1 h 54 min
Bit rate mode                            : Constant
Bit rate                                 : 640 kb/s
Channel(s)                               : 6 channels

Channel layout                           : L R C LFE Ls Rs
Sampling rate                            : 48.0 kHz
Frame rate                               : 31.250 FPS (1536 SPF)
Compression mode                         : Lossy
Stream size                              : 525 MiB (2%)
Title                                    : BTM DD 5.1
Language                                 : Russian

Service kind                             : Complete Main
Default                                  : Yes
Forced                                   : No
AC3_metadata cmixlev                     : -3.0 dB
surmixlev                               : -3 dB

Audio #10
ID                                       : 11
Format                                   : AC-3
Format/Info                              : Audio Coding 3
Commercial name                          : Dolby Digital
Format settings                          : Dolby Surround
Codec ID                                 : A_AC3
Duration                                 : 1 h 54 min
Bit rate mode                            : Constant
Bit rate                                 : 192 kb/s
Channel(s)                               : 2 channels

Channel layout                           : L R
Sampling rate                            : 48.0 kHz
Frame rate                               : 31.250 FPS (1536 SPF)
Compression mode                         : Lossy
Stream size                              : 158 MiB (1%)
Title                                    : BTM DD 5.1
Language                                 : Japanese

Service kind                             : Complete Main
Default                                  : Yes
Forced                                   : No

Audio #11
ID                                       : 12
Format                                   : AC-3
Format/Info                              : Audio Coding 3
Commercial name                          : Dolby Digital
Format settings                          : Dolby Surround
Codec ID                                 : A_AC3
Duration                                 : 1 h 54 min
Bit rate mode                            : Constant
Bit rate                                 : 192 kb/s
Channel(s)                               : 2 channels

Channel layout                           : L R
Sampling rate                            : 48.0 kHz
Frame rate                               : 31.250 FPS (1536 SPF)
Compression mode                         : Lossy
Stream size                              : 158 MiB (1%)
Title                                    : BTM Commentary
Language                                 : English

Service kind                             : Complete Main
Default                                  : Yes
Forced                                   : No

Audio #12
ID                                       : 13
Format                                   : AC-3
Format/Info                              : Audio Coding 3
Commercial name                          : Dolby Digital
Format settings                          : Dolby Surround
Codec ID                                 : A_AC3
Duration                                 : 1 h 54 min
Bit rate mode                            : Constant
Bit rate                                 : 192 kb/s
Channel(s)                               : 2 channels

Channel layout                           : L R
Sampling rate                            : 48.0 kHz
Frame rate                               : 31.250 FPS (1536 SPF)
Compression mode                         : Lossy
Stream size                              : 158 MiB (1%)
Title                                    : BTM Commentary
Language                                 : English

Service kind                             : Complete Main
Default                                  : Yes
Forced                                   : No
YouTube Video:   
Category:Movies
Language:English  English
Total Size:26.19 GB
Info Hash:F22B090F855020C9CF7FD398A1123E64E79450BD
Added By:Freddy1714 Verified Uploader
Date Added:2024-04-02 20:22:27
Torrent Status:Torrent Verified


Ratings:Not Yet Rated (Log in to rate it)


Tracker:
udp://tracker.opentrackr.org:1337/announce

This Torrent also has backup trackers
URLSeedersLeechersCompleted
udp://tracker.opentrackr.org:1337/announce313584
udp://open.stealth.si:80/announce263069
udp://tracker.torrent.eu.org:451/announce273280
http://bt.okmp3.ru:2710/announce91023
udp://6ahddutb1ucc3cp.ru:6969/announce9816
https://tracker.tamersunion.org:443/announce10200
http://tracker.vraphim.com:6969/announce101121
udp://tracker.cyberia.is:6969/announce330000
http://tracker2.dler.org:80/announce548
udp://exodus.desync.com:6969/announce141034
udp://tracker.tiny-vps.com:6969/announce41259


File List: 





Comments
No comments still posted