Download The Walking Dead S11E05 WEB-DL XviD B4ND1T69 torrent - GloDLS
HTML tutorial
Torrent Details For "The Walking Dead S11E05 WEB-DL XviD B4ND1T69"

The Walking Dead S11E05 WEB-DL XviD B4ND1T69

To download this torrent, you need a BitTorrent client: Vuze or BTGuard
Download this torrent
Download using Magnet Link

Health:
Seeds: 255
Leechers: 12
Completed: 3,641 
Last Checked: 19-09-2021 06:17:07

Uploader Reputation points : 1182





Write a Review for the Uploader:   0   Say Thanks with one good review:
Share on Facebook
TV Info

The Walking Dead

The world we knew is gone. An epidemic of apocalyptic proportions has swept the globe causing the dead to rise and feed on the living. In a matter of months society has crumbled. In a world ruled by the dead, we are forced to finally start living.



Details
Name:The Walking Dead S11E05 WEB-DL XviD B4ND1T69
Description:
The.Walking.Dead.S11E05.WEB-DL.XviD.B4ND1T69



Creators: Frank Darabont, Angela Kang
Stars: Andrew Lincoln, Norman Reedus, Melissa McBride

Plot/Story:
Out of the Ashes
Alexandrians encounter Hilltop squatters; Eugene’s group undergoes orientation at the Commonwealth.

General
Complete name               : The.Walking.Dead.S11E05.WEB-DL.XviD.B4ND1T69.avi
Format                      : AVI
Format/Info                 : Audio Video Interleave
File size                   : 661 MiB
Duration                    : 57 min 2 s
Overall bit rate            : 1 621 kb/s
Subtitles                   : Yes...Included(HI)

Video
ID                          : 0
Format                      : MPEG-4 Visual
Format profile              : Advanced [email protected]
Format settings, BVOP       : 2
Format settings, QPel       : No
Format settings, GMC        : No warppoints
Format settings, Matrix     : Default (H.263)
Codec ID                    : XVID
Codec ID/Hint               : XviD
Duration                    : 57 min 2 s
Bit rate                    : 1 480 kb/s
Width                       : 640 pixels
Height                      : 360 pixels
Display aspect ratio        : 16:9
Frame rate                  : 24.000 FPS
Color space                 : YUV
Chroma subsampling          : 4:2:0
Bit depth                   : 8 bits
Scan type                   : Progressive
Compression mode            : Lossy
Bits/(Pixel*Frame)          : 0.268
Stream size                 : 604 MiB (91%)
Writing library             : XviD 64

Audio
ID                          : 1
Format                      : MPEG Audio
Format version              : Version 1
Format profile              : Layer 3
Codec ID                    : 55
Codec ID/Hint               : MP3
Duration                    : 57 min 2 s
Bit rate mode               : Constant
Bit rate                    : 128 kb/s
Channel(s)                  : 2 channels
Sampling rate               : 48.0 kHz
Compression mode            : Lossy
Stream size                 : 52.2 MiB (8%)
Alignment                   : Aligned on interleaves
Interleave, duration        : 24  ms (0.58 video frame)

Screenshots:







Please Seed For As Long As Possible
Or At Least 1:1 Ratio...Thanks
Enjoy Peeps
YouTube Video:   
Category:TV
Language:English  English
Total Size:661.48 MB
Info Hash:C325F69D198D792A830D8F511701C20A1D1A13AE
Added By:B4ND1T69 Verified UploaderMovie Pirate
Date Added:2021-09-12 21:20:12
Torrent Status:Torrent Verified


Ratings:Not Yet Rated (Log in to rate it)


Tracker:
udp://tracker.opentrackr.org:1337/announce

This Torrent also has backup trackers
URLSeedersLeechersCompleted
udp://tracker.opentrackr.org:1337/announce313909
udp://open.stealth.si:80/announce311520
udp://exodus.desync.com:6969/announce24170
udp://9.rarbg.to:2790/announce2613
udp://opentor.org:2710/announce301457
udp://explodie.org:6969/announce000
udp://tracker.uw0.xyz:6969/announce000
udp://opentracker.i2p.rocks:6969/announce000
udp://9.rarbg.me:2980/announce000
udp://tracker.tiny-vps.com:6969/announce000
udp://tracker.moeking.me:6969/announce23211
udp://tracker.zerobytes.xyz:1337/announce270495
udp://retracker.netbynet.ru:2710/announce301457
udp://tracker.torrent.eu.org:451/announce222437
udp://p4p.arenabg.com:1337/announce110282


File List: 





Comments

[Report] Posted: 13-09-2021 at 06:13:34
Portos

avatar

profile message
Thx