Download Eternals (2021) 1080p English True WEB-HDRip x264 AC3 DD 5 1 ESub By Full4Movies mkv torrent - GloDLS
HTML tutorial
Torrent Details For "Eternals (2021) 1080p English True WEB-HDRip x264 AC3 DD 5 1 ESub By Full4Movies mkv"

Eternals (2021) 1080p English True WEB-HDRip x264 AC3 DD 5 1 ESub By Full4Movies mkv

To download this torrent, you need a BitTorrent client: Vuze or BTGuard
Download this torrent
Download using Magnet Link

Health:
Seeds: 1,354
Leechers: 1,399
Completed: 12,932 
Last Checked: 12-01-2022 06:03:41

Uploader Reputation points : 7282





Write a Review for the Uploader:   10   Say Thanks with one good review:
Share on Facebook


Details
Name:Eternals (2021) 1080p English True WEB-HDRip x264 AC3 DD 5 1 ESub By Full4Movies mkv
Description:


Visit Us = https://www.full4movies.sbs/



General
Complete name                  : Eternals (2021) 1080p English True WEB-HDRip x264 AC3 DD 5.1 ESub By Full4Movies.mkv
Format                         : Matroska
Format version                 : Version 4
File size                      : 2.70 GiB
Duration                       : 2 h 35 min
Overall bit rate               : 2 477 kb/s
Encoded date                   : UTC 2022-01-11 14:11:53
Writing application            : mkvmerge v8.3.0 ('Over the Horizon') 64bit
Writing library                : libebml v1.3.1 + libmatroska v1.4.2
Attachments                    : 383845052472320.jpg

Video
ID                             : 1
Format                         : AVC
Format/Info                    : Advanced Video Codec
Format profile                 : [email protected]
Format settings                : CABAC / 4 Ref Frames
Format settings, CABAC         : Yes
Format settings, Reference fra : 4 frames
Codec ID                       : V_MPEG4/ISO/AVC
Duration                       : 2 h 35 min
Bit rate                       : 2 106 kb/s
Width                          : 1 920 pixels
Height                         : 800 pixels
Display aspect ratio           : 2.40:1
Frame rate mode                : Constant
Frame rate                     : 23.976 (24000/1001) FPS
Color space                    : YUV
Chroma subsampling             : 4:2:0
Bit depth                      : 8 bits
Scan type                      : Progressive
Bits/(Pixel*Frame)             : 0.057
Stream size                    : 2.28 GiB (84%)
Writing library                : x264 core 157 r2935 545de2f
Language                       : English
Default                        : Yes
Forced                         : No

Audio
ID                             : 2
Format                         : E-AC-3
Format/Info                    : Enhanced AC-3
Commercial name                : Dolby Digital Plus
Codec ID                       : A_EAC3
Duration                       : 2 h 35 min
Bit rate mode                  : Constant
Bit rate                       : 384 kb/s
Channel(s)                     : 6 channels
Channel layout                 : L R C LFE Ls Rs
Sampling rate                  : 48.0 kHz
Frame rate                     : 31.250 FPS (1536 SPF)
Compression mode               : Lossy
Stream size                    : 428 MiB (16%)
Language                       : English
Service kind                   : Complete Main
Default                        : Yes
Forced                         : No

Text #1
ID                             : 3
Format                         : UTF-8
Codec ID                       : S_TEXT/UTF8
Codec ID/Info                  : UTF-8 Plain Text
Duration                       : 2 h 33 min
Bit rate                       : 51 b/s
Count of elements              : 2211
Stream size                    : 58.2 KiB (0%)
Language                       : English
Default                        : No
Forced                         : No

Text #2
ID                             : 4
Format                         : UTF-8
Codec ID                       : S_TEXT/UTF8
Codec ID/Info                  : UTF-8 Plain Text
Duration                       : 2 h 33 min
Bit rate                       : 41 b/s
Count of elements              : 1785
Stream size                    : 46.6 KiB (0%)
Language                       : English
Default                        : No
Forced                         : No

Screen Shoots







YouTube Video:
Category:Movies
Language:English  English
Total Size:2.70 GB
Info Hash:F52C623154AD7FA0A9B021C804895A384414D986
Added By:india4movie Verified Uploader
Date Added:2022-01-11 22:38:36
Torrent Status:Torrent Verified


Ratings:Not Yet Rated (Log in to rate it)


Tracker:
udp://tracker.opentrackr.org:1337/announce

This Torrent also has backup trackers
URLSeedersLeechersCompleted
udp://tracker.opentrackr.org:1337/announce2202351,285
udp://9.rarbg.me:2790/announce1691463,127
udp://9.rarbg.to:2800/announce1691463,127
http://tracker.dler.org:6969/announce1310
udp://tracker.internetwarriors.net:1337/announce176178773
udp://open.stealth.si:80/announce147172740
udp://fasttracker.foreverpirates.co:6969/announce000
udp://tracker.uw0.xyz:6969/announce000
udp://tracker.dler.org:6969/announce7301
udp://opentor.org:2710/announce000
udp://open.stealth.si:80/announce147172740
udp://9.rarbg.me:2980/announce1701453,129
udp://tracker.openbittorrent.com:80/announce14814410


File List: 





Comments
No comments still posted