Download Scream (2022) 720p English HDCAM x264 AAC 2 0 By Full4Movies mkv torrent - GloDLS
HTML tutorial
Torrent Details For "Scream (2022) 720p English HDCAM x264 AAC 2 0 By Full4Movies mkv"

Scream (2022) 720p English HDCAM x264 AAC 2 0 By Full4Movies mkv

To download this torrent, you need a BitTorrent client: Vuze or BTGuard
Download this torrent
Download using Magnet Link

Health:
Seeds: 1,852
Leechers: 2,877
Completed: 12,860 
Last Checked: 14-01-2022 15:26:17

Uploader Reputation points : 7282





Write a Review for the Uploader:   10   Say Thanks with one good review:
Share on Facebook


Details
Name:Scream (2022) 720p English HDCAM x264 AAC 2 0 By Full4Movies mkv
Description:


Visit Us = https://www.full4movies.sbs/



General
Complete name                  : Scream (2022) 720p English HDCAM x264 AAC 2.0 By Full4Movies.mkv
Format                         : Matroska
Format version                 : Version 4
File size                      : 1.02 GiB
Duration                       : 1 h 49 min
Overall bit rate               : 1 330 kb/s
Encoded date                   : UTC 2022-01-13 15:51:40 / UTC
Writing application            : mkvmerge v8.3.0 ('Over the Horizon') 64bit
Writing library                : libebml v1.3.1 + libmatroska v1.4.2 / Lavf55.12.0
Attachments                    : 383845052472320.jpg

Video
ID                             : 1
Format                         : AVC
Format/Info                    : Advanced Video Codec
Format profile                 : [email protected]
Format settings                : CABAC / 4 Ref Frames
Format settings, CABAC         : Yes
Format settings, Reference fra : 4 frames
Codec ID                       : V_MPEG4/ISO/AVC
Duration                       : 1 h 49 min
Bit rate                       : 1 200 kb/s
Width                          : 1 280 pixels
Height                         : 496 pixels
Display aspect ratio           : 2.581
Frame rate mode                : Constant
Frame rate                     : 23.976 (24000/1001) FPS
Color space                    : YUV
Chroma subsampling             : 4:2:0
Bit depth                      : 8 bits
Scan type                      : Progressive
Bits/(Pixel*Frame)             : 0.079
Stream size                    : 942 MiB (90%)
Writing library                : x264 core 142 r2479 dd79a61
Default                        : Yes
Forced                         : No
Color range                    : Limited
Color primaries                : BT.709
Transfer characteristics       : BT.709
Matrix coefficients            : BT.709

Audio
ID                             : 2
Format                         : AAC LC SBR
Format/Info                    : Advanced Audio Codec Low Complexity with Spectral Band Replication
Commercial name                : HE-AAC
Format settings                : NBC
Codec ID                       : A_AAC-5
Duration                       : 1 h 49 min
Bit rate                       : 128 kb/s
Channel(s)                     : 2 channels
Channel layout                 : L R
Sampling rate                  : 48.0 kHz
Frame rate                     : 23.438 FPS (2048 SPF)
Compression mode               : Lossy
Delay relative to video        : -105 ms
Stream size                    : 101 MiB (10%)
Default                        : Yes
Forced                         : No

Screen Shoots







YouTube Video:
Category:Movies
Language:English  English
Total Size:1.02 GB
Info Hash:BB083EE26E6A0DAAEF7501774431FBEAD4EB4DD4
Added By:india4movie Verified Uploader
Date Added:2022-01-14 00:49:44
Torrent Status:Torrent Verified


Ratings:Not Yet Rated (Log in to rate it)


Tracker:
udp://tracker.opentrackr.org:1337/announce

This Torrent also has backup trackers
URLSeedersLeechersCompleted
udp://tracker.opentrackr.org:1337/announce3174271,722
udp://9.rarbg.me:2790/announce2763412,895
udp://9.rarbg.to:2800/announce2763412,895
http://tracker.dler.org:6969/announce3210
udp://tracker.internetwarriors.net:1337/announce2483711,173
udp://open.stealth.si:80/announce109277570
udp://fasttracker.foreverpirates.co:6969/announce000
udp://tracker.uw0.xyz:6969/announce000
udp://tracker.dler.org:6969/announce000
udp://opentor.org:2710/announce32238130
udp://open.stealth.si:80/announce109277570
udp://9.rarbg.me:2980/announce2763402,895
udp://tracker.openbittorrent.com:80/announce20624310


File List: 





Comments

[Report] Posted: 15-01-2022 at 22:40:36
markama

avatar

profile message
Thxxx