Download The Hunger Games The Ballad of Songbirds and Snakes 2023 1080p HD-TS x264 Dual YG⭐ torrent - GloDLS
Torrent Details For "The Hunger Games The Ballad of Songbirds and Snakes 2023 1080p HD-TS x264 Dual YG⭐"

The Hunger Games The Ballad of Songbirds and Snakes 2023 1080p HD-TS x264 Dual YG⭐

To download this torrent, you need a BitTorrent client: Vuze or BTGuard
Download this torrent
Download using Magnet Link

Health:
Seeds: 2,504
Leechers: 5,911
Completed: 19,456 
Last Checked: 25-11-2023 04:15:42

Uploader Reputation points : 3981





Write a Review for the Uploader:   20   Say Thanks with one good review:
Share on Facebook


Details
Name:The Hunger Games The Ballad of Songbirds and Snakes 2023 1080p HD-TS x264 Dual YG⭐
Description:


==============================================================
The.Hunger.Games.The.Ballad.of.Songbirds.and.Snakes.2023.1080p.HD-TS.x264.Dual.YG⭐
==============================================================
                   General Information
==============================================================
Complete name                  : The.Hunger.Games.The.Ballad.of.Songbirds.and.Snakes.2023.1080p.HD-TS.x264.Dual.YG⭐
Format                         : Matroska
Format version                 : Version 4
File size                      : 4.47 GiB
Duration                       : 2 h 27 min
Overall bit rate mode          : Variable
Overall bit rate               : 4 341 kb/s


Video
ID                             : 1
Format                         : AVC
Format/Info                    : Advanced Video Codec
Format profile                 : Main@L4
Format settings                : CABAC / 4 Ref Frames
Format settings, CABAC         : Yes
Format settings, Reference fra : 4 frames
Codec ID                       : V_MPEG4/ISO/AVC
Duration                       : 2 h 27 min
Bit rate mode                  : Variable
Bit rate                       : 4 017 kb/s
Maximum bit rate               : 16.0 Mb/s
Width                          : 1 920 pixels
Height                         : 958 pixels
Display aspect ratio           : 2.004
Frame rate mode                : Constant
Frame rate                     : 23.976 (24000/1001) FPS
Color space                    : YUV
Chroma subsampling             : 4:2:0
Bit depth                      : 8 bits
Scan type                      : Progressive
Bits/(Pixel*Frame)             : 0.091
Stream size                    : 4.13 GiB (93%)
Language                       : English
Default                        : Yes
Forced                         : No
Color range                    : Limited



Audio #1
Format                         : AAC LC
Codec ID                       : A_AAC-2
Duration                       : 2 h 27 min
Bit rate                       : 160 kb/s
Channel(s)                     : 2 channels
Channel layout                 : L R
Sampling rate                  : 44.1 kHz
Frame rate                     : 43.066 FPS (1024 SPF)
Compression mode               : Lossy
Delay relative to video        : -23 ms
Stream size                    : 169 MiB (4%)
Language                       : English


Audio #2
Format                         : AAC LC
Codec ID                       : A_AAC-2
Duration                       : 2 h 27 min
Bit rate                       : 160 kb/s
Channel(s)                     : 2 channels
Channel layout                 : L R
Sampling rate                  : 44.1 kHz
Frame rate                     : 43.066 FPS (1024 SPF)
Compression mode               : Lossy
Delay relative to video        : -23 ms
Stream size                    : 169 MiB (4%)
Language                       : Spanish

==============================================================

                 Post Information
==============================================================
Posted by============: Yerisan Group
Posted on============: 20/11/2023
------------------------------------------------------------









-------------------------------------------------------

-------------------------------------------------------





you can follow me...
Spanish YG


[b](-Gatty Dual YG-)


Torrent Downloaded From Gatty Dual YG
For More Exclusive Stuff Visit Us


(-Gatty Dual YG-)





PiRATES_NEVER_DiE!*
*We Just go ON and On and On...FOREVER!*
YouTube Video:
Category:Movies
Language:Spanish  Spanish
Total Size:4.47 GB
Info Hash:E8972AEDD23B1A16FD11B987865866E1F158B390
Added By:Yerisan710 Verified Uploader
Date Added:2023-11-21 07:03:39
Torrent Status:Torrent Verified


Ratings:Not Yet Rated (Log in to rate it)


Tracker:
udp://opentor.org:2710/announce

This Torrent also has backup trackers
URLSeedersLeechersCompleted
udp://opentor.org:2710/announce000
udp://open.demonii.com:1337000
udp://exodus.desync.com:6969/announce2781,1622,666
udp://tracker.moeking.me:6969/announce000
udp://tracker.opentrackr.org:1337/announce6221,4646,447
udp://open.stealth.si:80/announce5081,3565,355
udp://opentracker.i2p.rocks:6969/announce4831,3664,978
udp://tracker.openbittorrent.com:6969/announce18650310
udp://retracker.lanta-net.ru:2710/announce000
udp://p4p.arenabg.com:1337/announce427600
udp://inferno.demonoid.is:3391/announce000


File List: 





Comments
No comments still posted