Download Trigger Point S02 (2024) Rus 1080р WEBRip ViruseProject torrent - GloDLS
Torrent Details For "Trigger Point S02 (2024) Rus 1080р WEBRip ViruseProject"

Trigger Point S02 (2024) Rus 1080р WEBRip ViruseProject

To download this torrent, you need a BitTorrent client: Vuze or BTGuard
Download this torrent
Download using Magnet Link

Health:
Seeds: 4
Leechers: 53
Completed:
Last Checked: 10-07-2024 10:53:07

Uploader Reputation points : 3015





Write a Review for the Uploader:   0   Say Thanks with one good review:
Share on Facebook
TV Info

Trigger Point

The series turns the spotlight on counter terrorism policing and the extraordinary work of the Metropolitan Police Bomb Disposal Squad. When a terrorist campaign threatens the capital over the summer, the Expos are at the forefront of urgent efforts to find out who is behind the bombings before fatalities escalate.



Details
Name:Trigger Point S02 (2024) Rus 1080р WEBRip ViruseProject
Description:
На взводе / Trigger Point / сезон 2



https://www.imdb.com/title/tt11958610/






General
Unique ID                                : 252744334035722113298297511255834175688 (0xBE24C9C230BFA8AF8D6A695499B528C8)
Complete name                            : X:\222 ЗАЛИВА 222\Trigger.Point.2022.S02.ViruseProject\Trigger.Point.2022.S02.1080p.ViruseProject\Trigger.Point.2022.S02E01.1080p.WEBRip.ViruseProject.mkv
Format                                   : Matroska
Format version                           : Version 4
File size                                : 1.66 GiB
Duration                                 : 47 min 7 s
Overall bit rate                         : 5 033 kb/s
Encoded date                             : UTC 2024-07-09 08:14:50
Writing application                      : mkvmerge v8.3.0 ('Over the Horizon') 64bit
Writing library                          : libebml v1.3.1 + libmatroska v1.4.2

Video
ID                                       : 1
Format                                   : AVC
Format/Info                              : Advanced Video Codec
Format profile                           : [email protected]
Format settings                          : CABAC / 3 Ref Frames
Format settings, CABAC                   : Yes
Format settings, Reference frames        : 3 frames
Format settings, GOP                     : M=1, N=30
Codec ID                                 : V_MPEG4/ISO/AVC
Duration                                 : 47 min 7 s
Bit rate                                 : 4 841 kb/s
Width                                    : 1 920 pixels
Height                                   : 1 080 pixels
Display aspect ratio                     : 16:9
Frame rate mode                          : Constant
Frame rate                               : 25.000 FPS
Color space                              : YUV
Chroma subsampling                       : 4:2:0
Bit depth                                : 8 bits
Scan type                                : Progressive
Bits/(Pixel*Frame)                       : 0.093
Stream size                              : 1.59 GiB (96%)
Language                                 : English
Default                                  : Yes
Forced                                   : No

Audio
ID                                       : 2
Format                                   : AAC LC
Format/Info                              : Advanced Audio Codec Low Complexity
Codec ID                                 : A_AAC-2
Duration                                 : 47 min 7 s
Bit rate                                 : 192 kb/s
Channel(s)                               : 2 channels
Channel layout                           : L R
Sampling rate                            : 48.0 kHz
Frame rate                               : 46.875 FPS (1024 SPF)
Compression mode                         : Lossy
Stream size                              : 63.8 MiB (4%)
Title                                    : ViruseProject
Language                                 : Russian
Default                                  : Yes
Forced                                   : No
YouTube Video:   
Category:TV
Language:Russian  Russian
Total Size:9.64 GB
Info Hash:562E8F6022105958A53D75AF6ABE83C314CFA25C
Added By:viruse Verified UploaderTV Uploader
Date Added:2024-07-10 17:52:09
Torrent Status:Torrent Verified


Ratings:Not Yet Rated (Log in to rate it)


Tracker:
udp://opentor.org:2710/announce

This Torrent also has backup trackers
URLSeedersLeechersCompleted
udp://opentor.org:2710/announce000
udp://tracker.torrent.eu.org:451/announce190
udp://tracker.cyberia.is:6969/announce000
udp://exodus.desync.com:6969/announce190
udp://tracker.moeking.me:6969/announce000
udp://tracker.opentrackr.org:1337/announce080
udp://tracker.tiny-vps.com:6969/announce090
udp://open.stealth.si:80/announce1100
udp://tracker.iamhansen.xyz:2000/announce000
udp://tracker.theoks.net:6969/announce180
udp://retracker.lanta-net.ru:2710/announce000
udp://open.demonii.si:1337/announce000
udp://tracker.uw0.xyz:6969/announce000
udp://ipv4.tracker.harry.lu:80/announce000
udp://tracker.coppersurfer.tk:6969/announce000


File List: 





Comments
No comments still posted