Download Trigger Point S02 (2024) Rus WEBRip ViruseProject torrent - GloDLS
Torrent Details For "Trigger Point S02 (2024) Rus WEBRip ViruseProject"

Trigger Point S02 (2024) Rus WEBRip ViruseProject

To download this torrent, you need a BitTorrent client: Vuze or BTGuard
Download this torrent
Download using Magnet Link

Health:
Seeds: 3
Leechers: 28
Completed:
Last Checked: 10-07-2024 10:55:24

Uploader Reputation points : 3015





Write a Review for the Uploader:   0   Say Thanks with one good review:
Share on Facebook
TV Info

Trigger Point

The series turns the spotlight on counter terrorism policing and the extraordinary work of the Metropolitan Police Bomb Disposal Squad. When a terrorist campaign threatens the capital over the summer, the Expos are at the forefront of urgent efforts to find out who is behind the bombings before fatalities escalate.



Details
Name:Trigger Point S02 (2024) Rus WEBRip ViruseProject
Description:
На взводе / Trigger Point / сезон 2



https://www.imdb.com/title/tt11958610/






General
Complete name                            : X:\222 ЗАЛИВА 222\Trigger.Point.2022.S02.ViruseProject\Trigger.Point.2022.S02.400p.ViruseProject\Trigger.Point.2022.S02E01.WEBRip.ViruseProject.avi
Format                                   : AVI
Format/Info                              : Audio Video Interleave
File size                                : 551 MiB
Duration                                 : 47 min 6 s
Overall bit rate                         : 1 635 kb/s
Writing application                      : VirtualDubMod 1.5.10.2 (build 2540/release)
Writing library                          : VirtualDubMod build 2540/release

Video
ID                                       : 0
Format                                   : MPEG-4 Visual
Format profile                           : Advanced Simple@L5
Format settings                          : BVOP1
Format settings, BVOP                    : 1
Format settings, QPel                    : No
Format settings, GMC                     : No warppoints
Format settings, Matrix                  : Default (H.263)
Codec ID                                 : XVID
Codec ID/Hint                            : XviD
Duration                                 : 47 min 6 s
Bit rate                                 : 1 497 kb/s
Width                                    : 704 pixels
Height                                   : 352 pixels
Display aspect ratio                     : 2.000
Frame rate                               : 25.000 FPS
Color space                              : YUV
Chroma subsampling                       : 4:2:0
Bit depth                                : 8 bits
Scan type                                : Progressive
Compression mode                         : Lossy
Bits/(Pixel*Frame)                       : 0.242
Stream size                              : 504 MiB (92%)
Writing library                          : XviD 69

Audio
ID                                       : 1
Format                                   : MPEG Audio
Format version                           : Version 1
Format profile                           : Layer 3
Format settings                          : Joint stereo / MS Stereo
Codec ID                                 : 55
Codec ID/Hint                            : MP3
Duration                                 : 47 min 6 s
Bit rate mode                            : Constant
Bit rate                                 : 128 kb/s
Channel(s)                               : 2 channels
Sampling rate                            : 48.0 kHz
Compression mode                         : Lossy
Stream size                              : 43.1 MiB (8%)
Alignment                                : Split across interleaves
Interleave, duration                     : 40  ms (1.00 video frame)
Interleave, preload duration             : 500  ms
Writing library                          : LAME3.100
YouTube Video:   
Category:TV
Language:Russian  Russian
Total Size:3.14 GB
Info Hash:46C4211B235E098C7DEE45093FE1484F2B9A7546
Added By:viruse Verified UploaderTV Uploader
Date Added:2024-07-10 17:54:20
Torrent Status:Torrent Verified


Ratings:Not Yet Rated (Log in to rate it)


Tracker:
udp://opentor.org:2710/announce

This Torrent also has backup trackers
URLSeedersLeechersCompleted
udp://opentor.org:2710/announce000
udp://tracker.torrent.eu.org:451/announce160
udp://tracker.cyberia.is:6969/announce000
udp://exodus.desync.com:6969/announce140
udp://tracker.moeking.me:6969/announce000
udp://tracker.opentrackr.org:1337/announce070
udp://tracker.tiny-vps.com:6969/announce050
udp://open.stealth.si:80/announce160
udp://tracker.iamhansen.xyz:2000/announce000
udp://tracker.theoks.net:6969/announce000
udp://retracker.lanta-net.ru:2710/announce000
udp://open.demonii.si:1337/announce000
udp://tracker.uw0.xyz:6969/announce000
udp://ipv4.tracker.harry.lu:80/announce000
udp://tracker.coppersurfer.tk:6969/announce000


File List: 





Comments
No comments still posted