Download Unsung Hero 2024 2160p WEB-DL HDR DDP5 1 Atmos H265-BEN THE MEN torrent - GloDLS
Login
Username:
Password:
Remember Me:
[Signup]
[Recover Account]
Friends
Angie Torrents
Friendly Site

Get Into Way
Friendly site

Free Courses Online
Friendly site

KaranPC
Friendly site

OneHack
Friendly site

IGGGames
Friendly site

Torrent Details For "Unsung Hero 2024 2160p WEB-DL HDR DDP5 1 Atmos H265-BEN THE MEN"

Unsung Hero 2024 2160p WEB-DL HDR DDP5 1 Atmos H265-BEN THE MEN

To download this torrent, you need a BitTorrent client: Vuze or BTGuard
Download this torrent
Download using Magnet Link

Health:
Seeds: 258
Leechers: 352
Completed: 690 
Last Checked: 11-06-2024 17:35:23

Uploader Reputation points : 1137





Write a Review for the Uploader:   0   Say Thanks with one good review:
Share on Facebook


Details
Name:Unsung Hero 2024 2160p WEB-DL HDR DDP5 1 Atmos H265-BEN THE MEN
Description:
Unsung.Hero.2024.2160p.WEB-DL.HDR10.PLUS.DDP5.1.Atmos.H265-BEN.THE.MEN

https://www.youtube.com/watch?v=_mYkDJ1vBg4

https://www.imdb.com/title/tt23638614/

Based on a remarkable true story, a mum's faith stands against all odds and inspires her husband and children to hold on to theirs.

ENG SUB ONLY







Format                                   : Matroska
Format version                           : Version 4
File size                                : 13.5 GiB
Duration                                 : 1 h 52 min
Overall bit rate                         : 17.2 Mb/s
Frame rate                               : 23.976 FPS
Movie name                               : Unsung.Hero.2024.2160p.WEB-DL[Ben The Men]
Encoded date                             : 2024-06-11 07:25:14 UTC
Writing application                      : mkvmerge v85.0 ('Shame For You') 64-bit
Writing library                          : libebml v1.4.5 + libmatroska v1.7.1
Attachments                              : BEN.THE.MEN.TORRENTS.jpg

Video
ID                                       : 1
Format                                   : HEVC
Format/Info                              : High Efficiency Video Coding
Format profile                           : Main 10@L5@Main
HDR format                               : SMPTE ST 2094 App 4, Version 1, HDR10+ Profile B compatible
Codec ID                                 : V_MPEGH/ISO/HEVC
Duration                                 : 1 h 52 min
Bit rate                                 : 14.8 Mb/s
Width                                    : 3 840 pixels
Height                                   : 1 600 pixels
Display aspect ratio                     : 2.40:1
Frame rate mode                          : Constant
Frame rate                               : 23.976 (24000/1001) FPS
Color space                              : YUV
Chroma subsampling                       : 4:2:0
Bit depth                                : 10 bits
Bits/(Pixel*Frame)                       : 0.100
Stream size                              : 11.6 GiB (86%)
Title                                    : BEN.THE.MEN
Language                                 : English (US)
Default                                  : Yes
Forced                                   : Yes
Color range                              : Limited
Color primaries                          : BT.2020
Transfer characteristics                 : PQ
Matrix coefficients                      : BT.2020 non-constant
Mastering display color primaries        : Display P3
Mastering display luminance              : min: 0.0001 cd/m2, max: 1000 cd/m2
Maximum Content Light Level              : 985 cd/m2
Maximum Frame-Average Light Level        : 176 cd/m2

Audio #1
ID                                       : 2
Format                                   : E-AC-3 JOC
Format/Info                              : Enhanced AC-3 with Joint Object Coding
Commercial name                          : Dolby Digital Plus with Dolby Atmos
Codec ID                                 : A_EAC3
Duration                                 : 1 h 52 min
Bit rate mode                            : Constant
Bit rate                                 : 768 kb/s
Channel(s)                               : 6 channels
Channel layout                           : L R C LFE Ls Rs
Sampling rate                            : 48.0 kHz
Frame rate                               : 31.250 FPS (1536 SPF)
Compression mode                         : Lossy
Delay relative to video                  : 19 ms
Stream size                              : 619 MiB (4%)
Title                                    : BTM DDP5.1 Atmos
Language                                 : English

Service kind                             : Complete Main
Default                                  : Yes
Forced                                   : Yes
Complexity index                         : 16
Number of dynamic objects                : 15
Bed channel count                        : 1 channel
Bed channel configuration                : LFE
Dialog Normalization                     : -27 dB
compr                                    : -0.28 dB
dialnorm_Average                         : -27 dB
dialnorm_Minimum                         : -27 dB
dialnorm_Maximum                         : -27 dB

Audio #2
ID                                       : 3
Format                                   : E-AC-3
Format/Info                              : Enhanced AC-3
Commercial name                          : Dolby Digital Plus
Codec ID                                 : A_EAC3
Duration                                 : 1 h 52 min
Bit rate mode                            : Constant
Bit rate                                 : 960 kb/s
Channel(s)                               : 6 channels
Channel layout                           : L R C LFE Ls Rs
Sampling rate                            : 48.0 kHz
Frame rate                               : 31.250 FPS (1536 SPF)
Compression mode                         : Lossy
Stream size                              : 774 MiB (6%)
Title                                    : BTM DDP5.1
Language                                 : English

Service kind                             : Complete Main
Default                                  : No
Forced                                   : No
Dialog Normalization                     : -31 dB
dialnorm_Average                         : -31 dB
dialnorm_Minimum                         : -31 dB
dialnorm_Maximum                         : -31 dB

Audio #3
ID                                       : 4
Format                                   : AC-3
Format/Info                              : Audio Coding 3
Commercial name                          : Dolby Digital
Codec ID                                 : A_AC3
Duration                                 : 1 h 52 min
Bit rate mode                            : Constant
Bit rate                                 : 640 kb/s
Channel(s)                               : 6 channels
Channel layout                           : L R C LFE Ls Rs
Sampling rate                            : 48.0 kHz
Frame rate                               : 31.250 FPS (1536 SPF)
Compression mode                         : Lossy
Stream size                              : 516 MiB (4%)
Title                                    : BTM DD 5.1
Language                                 : English

Service kind                             : Complete Main
Default                                  : No
Forced                                   : No
Dialog Normalization                     : -31 dB
cmixlev                                  : -4.5 dB
surmixlev                                : -6 dB
dialnorm_Average                         : -31 dB
dialnorm_Minimum                         : -31 dB
dialnorm_Maximum                         : -31 dB
YouTube Video:   
Category:Movies
Language:English  English
Total Size:13.50 GB
Info Hash:697E4FF13A5E212066F1C9451E19A3121C9D7733
Added By:Freddy1714 Verified Uploader
Date Added:2024-06-11 15:33:16
Torrent Status:Torrent Verified


Ratings:Not Yet Rated (Log in to rate it)


Tracker:
udp://tracker.opentrackr.org:1337/announce

This Torrent also has backup trackers
URLSeedersLeechersCompleted
udp://tracker.opentrackr.org:1337/announce5666166
udp://open.stealth.si:80/announce4358130
udp://tracker.torrent.eu.org:451/announce5262140
http://bt.okmp3.ru:2710/announce9112
udp://6ahddutb1ucc3cp.ru:6969/announce000
https://tracker.tamersunion.org:443/announce23470
http://tracker.vraphim.com:6969/announce183049
udp://tracker.cyberia.is:6969/announce330000
http://tracker2.dler.org:80/announce14287
udp://exodus.desync.com:6969/announce243269
udp://tracker.tiny-vps.com:6969/announce1918127


File List: 





Comments
No comments still posted