Download Watchmen 2009 1080p BluRay ENG LATINO Dolby TrueHD 5 1 H264-BEN THE MEN torrent - GloDLS
Torrent Details For "Watchmen 2009 1080p BluRay ENG LATINO Dolby TrueHD 5 1 H264-BEN THE MEN"

Watchmen 2009 1080p BluRay ENG LATINO Dolby TrueHD 5 1 H264-BEN THE MEN

To download this torrent, you need a BitTorrent client: Vuze or BTGuard
Download this torrent
Download using Magnet Link

Health:
Seeds: 840
Leechers: 630
Completed: 1,329 
Last Checked: 16-06-2024 08:03:41

Uploader Reputation points : 1364





Write a Review for the Uploader:   3   Say Thanks with one good review:
Share on Facebook


Details
Name:Watchmen 2009 1080p BluRay ENG LATINO Dolby TrueHD 5 1 H264-BEN THE MEN
Description:
Watchmen.2009.1080p.BluRay.ENG.LATINO.Dolby.TrueHD.5.1.H264-BEN.THE.MEN

https://www.youtube.com/watch?v=wglmbroElU0

https://www.imdb.com/title/tt0409459/

In a version of 1985 where superheroes exist, the murder of a colleague sends active vigilante Rorschach on the trail of a conspiracy that will change the course of history.

ENG ESP SUBS







Format                                   : Matroska
Format version                           : Version 4
File size                                : 14.1 GiB
Duration                                 : 3 h 35 min
Overall bit rate mode                    : Variable
Overall bit rate                         : 9 339 kb/s
Frame rate                               : 23.976 FPS
Movie name                               : Watchmen.2009.1080p.BluRay[Ben The Men]
Encoded date                             : 2024-06-15 22:47:37 UTC
Writing application                      : mkvmerge v85.0 ('Shame For You') 64-bit
Writing library                          : libebml v1.4.5 + libmatroska v1.7.1
Attachments                              : BEN.THE.MEN.TORRENTS.jpg

Video
ID                                       : 1
Format                                   : AVC
Format/Info                              : Advanced Video Codec
Format profile                           : High@L4
Format settings                          : CABAC / 4 Ref Frames
Format settings, CABAC                   : Yes
Format settings, Reference frames        : 4 frames
Codec ID                                 : V_MPEG4/ISO/AVC
Duration                                 : 3 h 35 min
Bit rate                                 : 4 500 kb/s
Width                                    : 1 856 pixels
Height                                   : 800 pixels
Display aspect ratio                     : 2.35:1
Frame rate mode                          : Constant
Frame rate                               : 23.976 (24000/1001) FPS
Color space                              : YUV
Chroma subsampling                       : 4:2:0
Bit depth                                : 8 bits
Scan type                                : Progressive
Bits/(Pixel*Frame)                       : 0.126
Stream size                              : 6.72 GiB (48%)
Title                                    : BEN.THE.MEN
Writing library                          : x264 core 164 r3186 585e0199
Language                                 : English
Default                                  : Yes
Forced                                   : Yes
Color range                              : Limited
Color primaries                          : BT.709
Transfer characteristics                 : BT.709
Matrix coefficients                      : BT.709

Audio #1
ID                                       : 2
Format                                   : MLP FBA
Format/Info                              : Meridian Lossless Packing FBA
Commercial name                          : Dolby TrueHD
Codec ID                                 : A_TRUEHD
Duration                                 : 3 h 35 min
Bit rate mode                            : Variable
Bit rate                                 : 3 502 kb/s
Maximum bit rate                         : 5 280 kb/s
Channel(s)                               : 6 channels
Channel layout                           : L R C LFE Ls Rs
Sampling rate                            : 48.0 kHz
Frame rate                               : 1 200.000 FPS (40 SPF)
Compression mode                         : Lossless
Stream size                              : 5.27 GiB (37%)
Title                                    : BTM TrueHD 5.1
Language                                 : English

Default                                  : Yes
Forced                                   : Yes

Audio #2
ID                                       : 3
Format                                   : AC-3
Format/Info                              : Audio Coding 3
Commercial name                          : Dolby Digital
Codec ID                                 : A_AC3
Duration                                 : 3 h 35 min
Bit rate mode                            : Constant
Bit rate                                 : 640 kb/s
Channel(s)                               : 6 channels
Channel layout                           : L R C LFE Ls Rs
Sampling rate                            : 48.0 kHz
Frame rate                               : 31.250 FPS (1536 SPF)
Compression mode                         : Lossy
Stream size                              : 986 MiB (7%)
Title                                    : BTM DD 5.1
Language                                 : English

Service kind                             : Complete Main
Default                                  : No
Forced                                   : No
Dialog Normalization                     : -31 dB
cmixlev                                  : -4.5 dB
surmixlev                                : -6 dB
dialnorm_Average                         : -31 dB
dialnorm_Minimum                         : -31 dB
dialnorm_Maximum                         : -31 dB

Audio #3
ID                                       : 4
Format                                   : AC-3
Format/Info                              : Audio Coding 3
Commercial name                          : Dolby Digital
Codec ID                                 : A_AC3
Duration                                 : 3 h 35 min
Bit rate mode                            : Constant
Bit rate                                 : 640 kb/s
Channel(s)                               : 6 channels
Channel layout                           : L R C LFE Ls Rs
Sampling rate                            : 48.0 kHz
Frame rate                               : 31.250 FPS (1536 SPF)
Compression mode                         : Lossy
Stream size                              : 986 MiB (7%)
Title                                    : BTM DD 5.1
Language                                 : Spanish

Service kind                             : Complete Main
Default                                  : No
Forced                                   : No
Dialog Normalization                     : -31 dB
cmixlev                                  : -4.5 dB
surmixlev                                : -6 dB
dialnorm_Average                         : -31 dB
dialnorm_Minimum                         : -31 dB
dialnorm_Maximum                         : -31 dB
YouTube Video:   
Category:Movies
Language:Dubs/Dual Audio
Total Size:14.06 GB
Info Hash:2CF24F0F9F295C2B8535A3A60F331E5AFBA647B8
Added By:Freddy1714 Verified Uploader
Date Added:2024-06-16 06:57:46
Torrent Status:Torrent Verified


Ratings:Not Yet Rated (Log in to rate it)


Tracker:
udp://tracker.opentrackr.org:1337/announce

This Torrent also has backup trackers
URLSeedersLeechersCompleted
udp://tracker.opentrackr.org:1337/announce10131269
udp://open.stealth.si:80/announce9723220
udp://tracker.torrent.eu.org:451/announce9624227
udp://explodie.org:6969/announce67190
udp://open.demonii.com:1337/announce79180
udp://tracker.tiny-vps.com:6969/announce1411183
http://bt.okmp3.ru:2710/announce15925
https://tracker.tamersunion.org:443/announce14100
http://tracker.vraphim.com:6969/announce151328
http://tracker2.dler.org:80/announce14101
udp://exodus.desync.com:6969/announce281260
udp://tracker.bittor.pw:1337/announce000
http://secure.pow7.com/announce150225158
http://t1.pow7.com/announce150225158


File List: 





Comments
No comments still posted