Download Weekend At Bernies 1989 REMASTERED BRRip XviD B4ND1T69 torrent - GloDLS
Login
Username:
Password:
Remember Me:
[Signup]
[Recover Account]
Friends
Angie Torrents
Friendly Site

Pirateiro
Friendly site

Free Courses Online
Friendly site

ETTV
Friendly site

ProStyleX
Friendly site

KaranPC
Friendly site

P2PDL.com
Friendly site

OneHack
Friendly site

IGGGames
Friendly site

Torrent Details For "Weekend At Bernies 1989 REMASTERED BRRip XviD B4ND1T69"

Weekend At Bernies 1989 REMASTERED BRRip XviD B4ND1T69

To download this torrent, you need a BitTorrent client: Vuze or BTGuard
Download this torrent
Download using Magnet Link

Health:
Seeds: 62
Leechers: 42
Completed: 108 
Last Checked: 04-05-2021 12:47:14

Uploader Reputation points : 778
External: Torrent






Write a Review for the Uploader:   0   Say Thanks with one good review:
Share on Facebook


Details
Name:Weekend At Bernies 1989 REMASTERED BRRip XviD B4ND1T69
Description:
Weekend.At.Bernies.1989.REMASTERED.BRRip.XviD.B4ND1T69



Director: Ted Kotcheff
Writer: Robert Klane
Stars: Andrew McCarthy, Jonathan Silverman, Catherine Mary Stewart

Plot/Story:
Two losers try to pretend that their murdered employer is really alive, leading the hitman to attempt to track him down to finish him off.

General
Complete name               : Weekend.At.Bernies.1989.REMASTERED.BRRip.XviD.B4ND1T69.avi
Format                      : AVI
Format/Info                 : Audio Video Interleave
File size                   : 1.20 GiB
Duration                    : 1 h 38 min
Overall bit rate            : 1 741 kb/s
Subtitles                   : Yes...Included(HI)

Video
ID                          : 0
Format                      : MPEG-4 Visual
Format profile              : Advanced [email protected]
Format settings, BVOP       : 2
Format settings, QPel       : No
Format settings, GMC        : No warppoints
Format settings, Matrix     : Default (H.263)
Codec ID                    : XVID
Codec ID/Hint               : XviD
Duration                    : 1 h 38 min
Bit rate                    : 1 600 kb/s
Width                       : 720 pixels
Height                      : 390 pixels
Display aspect ratio        : 1.85:1
Frame rate                  : 23.976 (24000/1001) FPS
Color space                 : YUV
Chroma subsampling          : 4:2:0
Bit depth                   : 8 bits
Scan type                   : Progressive
Compression mode            : Lossy
Bits/(Pixel*Frame)          : 0.238
Stream size                 : 1.10 GiB (92%)
Writing library             : XviD 64

Audio
ID                          : 1
Format                      : MPEG Audio
Format version              : Version 1
Format profile              : Layer 3
Codec ID                    : 55
Codec ID/Hint               : MP3
Duration                    : 1 h 38 min
Bit rate mode               : Constant
Bit rate                    : 128 kb/s
Channel(s)                  : 2 channels
Sampling rate               : 48.0 kHz
Compression mode            : Lossy
Stream size                 : 90.1 MiB (7%)
Alignment                   : Aligned on interleaves
Interleave, duration        : 24  ms (0.58 video frame)

Screenshots:










Please Seed For As Long As Possible
Or At Least 1:1 Ratio...Thanks
Enjoy Peeps
YouTube Video:   
Category:Movies
Language:English  English
Total Size:1.20 GB
Info Hash:9308444F9E76BACEC1CE13675BAE2AE4754DECC9
Added By:B4ND1T69 Verified UploaderMovie Pirate
Date Added:2021-05-04 17:59:25
Torrent Status:Torrent Verified


Ratings:Not Yet Rated (Log in to rate it)


Tracker:
udp://tracker.opentrackr.org:1337/announce

This Torrent also has backup trackers
URLSeedersLeechersCompleted
udp://tracker.opentrackr.org:1337/announce8616
udp://exodus.desync.com:6969/announce4210
udp://open.demonii.si:1337/announce000
udp://9.rarbg.to:2750/announce7413
udp://open.stealth.si:80/announce5410
udp://tracker.uw0.xyz:6969/announce5410
udp://tracker.tiny-vps.com:6969/announce538
udp://fasttracker.foreverpirates.co:6969/announce554
udp://explodie.org:6969/announce410
udp://tracker.cyberia.is:6969/announce000
udp://ipv4.tracker.harry.lu:80/announce000
udp://opentracker.i2p.rocks:6969/announce7614
udp://tracker.moeking.me:6969/announce7213
udp://opentor.org:2710/announce5410
udp://tracker.dler.org:6969/announce010


File List: 





Comments
No comments still posted