Download Without Remorse 2021 HDRip XviD B4ND1T69 torrent - GloDLS
Login
Username:
Password:
Remember Me:
[Signup]
[Recover Account]
Friends
Angie Torrents
Friendly Site

Pirateiro
Friendly site

Free Courses Online
Friendly site

ETTV
Friendly site

ProStyleX
Friendly site

KaranPC
Friendly site

P2PDL.com
Friendly site

OneHack
Friendly site

IGGGames
Friendly site

Torrent Details For "Without Remorse 2021 HDRip XviD B4ND1T69"

Without Remorse 2021 HDRip XviD B4ND1T69

To download this torrent, you need a BitTorrent client: Vuze or BTGuard
Download this torrent
Download using Magnet Link

Health:
Seeds: 88
Leechers: 62
Completed: 105 
Last Checked: 04-05-2021 12:47:27

Uploader Reputation points : 776
External: Torrent






Write a Review for the Uploader:   0   Say Thanks with one good review:
Share on Facebook


Details
Name:Without Remorse 2021 HDRip XviD B4ND1T69
Description:
Without.Remorse.2021.HDRip.XviD.B4ND1T69



Director: Stefano Sollima
Writers: Taylor Sheridan (screenplay by), Will Staples (screenplay by)
Stars: Michael B. Jordan, Jodie Turner-Smith, Jamie Bell

Plot/Story:
John Clark, a Navy SEAL, goes on a path to avenge his wife's murder only to find himself inside of a larger conspiracy.

General
Complete name               : Without.Remorse.2021.HDRip.XviD.B4ND1T69.avi
Format                      : AVI
Format/Info                 : Audio Video Interleave
File size                   : 625 MiB
Duration                    : 1 h 49 min
Overall bit rate            : 799 kb/s
Subtitles                   : Yes...Hardcoded for non-English parts + file included(HI)

Video
ID                          : 0
Format                      : MPEG-4 Visual
Format profile              : Advanced [email protected]
Format settings, BVOP       : 2
Format settings, QPel       : No
Format settings, GMC        : No warppoints
Format settings, Matrix     : Default (H.263)
Codec ID                    : XVID
Codec ID/Hint               : XviD
Duration                    : 1 h 49 min
Bit rate                    : 658 kb/s
Width                       : 720 pixels
Height                      : 304 pixels
Display aspect ratio        : 2.35:1
Frame rate                  : 23.976 (24000/1001) FPS
Color space                 : YUV
Chroma subsampling          : 4:2:0
Bit depth                   : 8 bits
Scan type                   : Progressive
Compression mode            : Lossy
Bits/(Pixel*Frame)          : 0.125
Stream size                 : 515 MiB (82%)
Writing library             : XviD 64

Audio
ID                          : 1
Format                      : MPEG Audio
Format version              : Version 1
Format profile              : Layer 3
Codec ID                    : 55
Codec ID/Hint               : MP3
Duration                    : 1 h 49 min
Bit rate mode               : Constant
Bit rate                    : 128 kb/s
Channel(s)                  : 2 channels
Sampling rate               : 48.0 kHz
Compression mode            : Lossy
Stream size                 : 100 MiB (16%)
Alignment                   : Aligned on interleaves
Interleave, duration        : 24  ms (0.58 video frame)

Screenshots:










Please Seed For As Long As Possible
Or At Least 1:1 Ratio...Thanks
Enjoy Peeps
YouTube Video:   
Category:Movies
Language:English  English
Total Size:624.87 MB
Info Hash:CDB6A6F1AAF60E4E9F2A90649CCFE02B1A938F7C
Added By:B4ND1T69 Verified UploaderMovie Pirate
Date Added:2021-05-04 18:11:10
Torrent Status:Torrent Verified


Ratings:Not Yet Rated (Log in to rate it)


Tracker:
udp://tracker.opentrackr.org:1337/announce

This Torrent also has backup trackers
URLSeedersLeechersCompleted
udp://tracker.opentrackr.org:1337/announce111217
udp://exodus.desync.com:6969/announce758
udp://open.demonii.si:1337/announce000
udp://9.rarbg.to:2750/announce12525
udp://open.stealth.si:80/announce8710
udp://tracker.uw0.xyz:6969/announce11511
udp://tracker.tiny-vps.com:6969/announce000
udp://fasttracker.foreverpirates.co:6969/announce653
udp://explodie.org:6969/announce360
udp://tracker.cyberia.is:6969/announce000
udp://ipv4.tracker.harry.lu:80/announce000
udp://opentracker.i2p.rocks:6969/announce12615
udp://tracker.moeking.me:6969/announce858
udp://opentor.org:2710/announce1068
udp://tracker.dler.org:6969/announce000


File List: 





Comments
No comments still posted