Download World War Z (2002) 480p BluRay Dual Audio [Hindi ORG DD 2 0 + English] x264 AAC ESub By Full4Movies mkv torrent - GloDLS
HTML tutorial
Torrent Details For "World War Z (2002) 480p BluRay Dual Audio [Hindi ORG DD 2 0 + English] x264 AAC ESub ..."

World War Z (2002) 480p BluRay Dual Audio [Hindi ORG DD 2 0 + English] x264 AAC ESub ...

To download this torrent, you need a BitTorrent client: Vuze or BTGuard
Download this torrent
Download using Magnet Link

Health:
Seeds: 8
Leechers: 6
Completed: 15 
Last Checked: 14-10-2021 05:52:21

Uploader Reputation points : 6790





Write a Review for the Uploader:   5   Say Thanks with one good review:
Share on Facebook


Details
Name:World War Z (2002) 480p BluRay Dual Audio [Hindi ORG DD 2 0 + English] x264 AAC ESub ...
Description:



Visit Us = https://www.full4movies.site/



General
Complete name                  : World War Z (2002) 480p BluRay Dual Audio [Hindi ORG DD 2.0 + English] x264 AAC ESub By Full4Movies.mkv
Format                         : Matroska
Format version                 : Version 4
File size                      : 424 MiB
Duration                       : 2 h 3 min
Overall bit rate               : 482 kb/s
Encoded date                   : UTC 2021-10-13 09:58:33
Writing application            : mkvmerge v8.3.0 ('Over the Horizon') 64bit
Writing library                : libebml v1.3.1 + libmatroska v1.4.2
Attachments                    : +Full4Movies.jpg

Video
ID                             : 1
Format                         : AVC
Format/Info                    : Advanced Video Codec
Format profile                 : [email protected]
Format settings                : CABAC / 4 Ref Frames
Format settings, CABAC         : Yes
Format settings, Reference fra : 4 frames
Codec ID                       : V_MPEG4/ISO/AVC
Duration                       : 2 h 3 min
Bit rate                       : 400 kb/s
Width                          : 720 pixels
Height                         : 300 pixels
Display aspect ratio           : 2.40:1
Frame rate mode                : Constant
Frame rate                     : 23.976 (24000/1001) FPS
Color space                    : YUV
Chroma subsampling             : 4:2:0
Bit depth                      : 8 bits
Scan type                      : Progressive
Bits/(Pixel*Frame)             : 0.077
Stream size                    : 352 MiB (83%)
Writing library                : x264 core 142 r2479 dd79a61
Default                        : Yes
Forced                         : No
Color range                    : Limited
Color primaries                : BT.709
Transfer characteristics       : BT.709
Matrix coefficients            : BT.709

Audio #1
ID                             : 2
Format                         : AAC LC SBR
Format/Info                    : Advanced Audio Codec Low Complexity with Spectral Band Replication
Commercial name                : HE-AAC
Format settings                : NBC
Codec ID                       : A_AAC-5
Duration                       : 2 h 3 min
Bit rate                       : 40.0 kb/s
Channel(s)                     : 2 channels
Channel layout                 : L R
Sampling rate                  : 48.0 kHz
Frame rate                     : 23.438 FPS (2048 SPF)
Compression mode               : Lossy
Delay relative to video        : -105 ms
Stream size                    : 35.2 MiB (8%)
Language                       : Hindi
Default                        : Yes
Forced                         : No

Audio #2
ID                             : 3
Format                         : AAC LC SBR
Format/Info                    : Advanced Audio Codec Low Complexity with Spectral Band Replication
Commercial name                : HE-AAC
Format settings                : NBC
Codec ID                       : A_AAC-5
Duration                       : 2 h 3 min
Bit rate                       : 40.0 kb/s
Channel(s)                     : 2 channels
Channel layout                 : L R
Sampling rate                  : 48.0 kHz
Frame rate                     : 23.438 FPS (2048 SPF)
Compression mode               : Lossy
Delay relative to video        : -105 ms
Stream size                    : 35.2 MiB (8%)
Language                       : English
Default                        : No
Forced                         : No

Text
ID                             : 4
Format                         : PGS
Muxing mode                    : zlib
Codec ID                       : S_HDMV/PGS
Codec ID/Info                  : Picture based subtitle format used on BDs/HD-DVDs
Duration                       : 52 min 37 s
Bit rate                       : 136 b/s
Count of elements              : 18
Stream size                    : 52.8 KiB (0%)
Language                       : English
Default                        : No
Forced                         : No

Screen Shoots
YouTube Video:
Category:Movies
Language:Hindi  Hindi
Total Size:424.23 MB
Info Hash:4EFD732817D7202DC7D86F4D5572C3B0053D02A4
Added By:india4movie Verified Uploader
Date Added:2021-10-14 12:25:26
Torrent Status:Torrent Verified


Ratings:Not Yet Rated (Log in to rate it)


Tracker:
udp://tracker.opentrackr.org:1337/announce

This Torrent also has backup trackers
URLSeedersLeechersCompleted
udp://tracker.opentrackr.org:1337/announce112
udp://9.rarbg.me:2790/announce113
udp://9.rarbg.to:2800/announce113
http://tracker.dler.org:6969/announce000
udp://tracker.internetwarriors.net:1337/announce111
udp://open.stealth.si:80/announce101
udp://fasttracker.foreverpirates.co:6969/announce000
udp://tracker.uw0.xyz:6969/announce000
udp://tracker.dler.org:6969/announce000
udp://opentor.org:2710/announce111
udp://open.stealth.si:80/announce101
udp://9.rarbg.me:2980/announce113
udp://tracker.openbittorrent.com:80/announce000


File List: 





Comments
No comments still posted