Download WWE NXT - 12th October (2021) 720p English WEB-HDRip x264 AAC DD 2 0 By Full4Movies mkv torrent - GloDLS
HTML tutorial
Torrent Details For "WWE NXT - 12th October (2021) 720p English WEB-HDRip x264 AAC DD 2 0 By Full4Movies m..."

WWE NXT - 12th October (2021) 720p English WEB-HDRip x264 AAC DD 2 0 By Full4Movies m...

To download this torrent, you need a BitTorrent client: Vuze or BTGuard
Download this torrent
Download using Magnet Link

Health:
Seeds: 8
Leechers: 14
Completed:
Last Checked: 14-10-2021 05:51:47

Uploader Reputation points : 6790





Write a Review for the Uploader:   5   Say Thanks with one good review:
Share on Facebook


Details
Name:WWE NXT - 12th October (2021) 720p English WEB-HDRip x264 AAC DD 2 0 By Full4Movies m...
Description:


Visit Us = https://www.full4movies.site/




General
Complete name                  : WWE NXT - 12th October (2021) 720p English WEB-HDRip x264 AAC DD 2.0 By Full4Movies.mkv
Format                         : Matroska
Format version                 : Version 4
File size                      : 887 MiB
Duration                       : 1 h 33 min
Overall bit rate               : 1 332 kb/s
Encoded date                   : UTC 2021-10-13 13:02:40 / UTC
Writing application            : mkvmerge v8.3.0 ('Over the Horizon') 64bit
Writing library                : libebml v1.3.1 + libmatroska v1.4.2 / Lavf55.12.0
Attachments                    : 383845052472320.jpg

Video
ID                             : 1
Format                         : AVC
Format/Info                    : Advanced Video Codec
Format profile                 : [email protected]
Format settings                : CABAC / 4 Ref Frames
Format settings, CABAC         : Yes
Format settings, Reference fra : 4 frames
Codec ID                       : V_MPEG4/ISO/AVC
Duration                       : 1 h 33 min
Bit rate                       : 1 200 kb/s
Width                          : 1 280 pixels
Height                         : 720 pixels
Display aspect ratio           : 16:9
Frame rate mode                : Constant
Frame rate                     : 59.940 (60000/1001) FPS
Color space                    : YUV
Chroma subsampling             : 4:2:0
Bit depth                      : 8 bits
Scan type                      : Progressive
Bits/(Pixel*Frame)             : 0.022
Stream size                    : 799 MiB (90%)
Writing library                : x264 core 142 r2479 dd79a61
Default                        : Yes
Forced                         : No
Color range                    : Limited
Color primaries                : BT.709
Transfer characteristics       : BT.709
Matrix coefficients            : BT.709

Audio
ID                             : 2
Format                         : AAC LC SBR
Format/Info                    : Advanced Audio Codec Low Complexity with Spectral Band Replication
Commercial name                : HE-AAC
Format settings                : NBC
Codec ID                       : A_AAC-5
Duration                       : 1 h 33 min
Bit rate                       : 128 kb/s
Channel(s)                     : 2 channels
Channel layout                 : L R
Sampling rate                  : 48.0 kHz
Frame rate                     : 23.438 FPS (2048 SPF)
Compression mode               : Lossy
Delay relative to video        : -105 ms
Stream size                    : 85.2 MiB (10%)
Language                       : English
Default                        : Yes
Forced                         : No

Screen Shoots
YouTube Video:
Category:TV
Language:English  English
Total Size:886.76 MB
Info Hash:4E19AB43C87F07B7688DE390FCE577A740786F30
Added By:india4movie Verified Uploader
Date Added:2021-10-14 12:45:11
Torrent Status:Torrent Verified


Ratings:Not Yet Rated (Log in to rate it)


Tracker:
udp://tracker.opentrackr.org:1337/announce

This Torrent also has backup trackers
URLSeedersLeechersCompleted
udp://tracker.opentrackr.org:1337/announce110
udp://9.rarbg.me:2790/announce120
udp://9.rarbg.to:2800/announce120
http://tracker.dler.org:6969/announce010
udp://tracker.internetwarriors.net:1337/announce120
udp://open.stealth.si:80/announce110
udp://fasttracker.foreverpirates.co:6969/announce000
udp://tracker.uw0.xyz:6969/announce000
udp://tracker.dler.org:6969/announce000
udp://opentor.org:2710/announce120
udp://open.stealth.si:80/announce110
udp://9.rarbg.me:2980/announce120
udp://tracker.openbittorrent.com:80/announce000


File List: 





Comments
No comments still posted