Download Head in the Clouds 2004 Open Matte BRRip 2160p UHD SDR DDP 5 1 gerald99 torrent - GloDLS
Torrent Details For "Head in the Clouds 2004 Open Matte BRRip 2160p UHD SDR DDP 5 1 gerald99"

Head in the Clouds 2004 Open Matte BRRip 2160p UHD SDR DDP 5 1 gerald99

To download this torrent, you need a BitTorrent client: Vuze or BTGuard
Download this torrent
Download using Magnet Link

Health:
Seeds: 41
Leechers: 260
Completed: 70 
Last Checked: 22-06-2022 17:01:43

Uploader Reputation points : 1091





Write a Review for the Uploader:   10   Say Thanks with one good review:
Share on Facebook


Details
Name:Head in the Clouds 2004 Open Matte BRRip 2160p UHD SDR DDP 5 1 gerald99
Description:


https://www.imdb.com/title/tt0338097/
2004 R 2h1m Drama Romance War 6.5/10
Stars Charlize Theron Stuart Townsend Penélope Cruz
Taglines Three lives. One destiny.

Storyline
On a rainy night in 1933, the young, rebellious and provocative heiress of a French champagne magnate, Gilda Bessé, storms into the quiet life of the timid Oxford undergraduate, Guy Malyon, taking him by surprise. And before he knows it, Guy is love-smitten, and taken in the Parisian apartment of the now famous photographer, Gilda, living under the same roof with her muse and Spanish political idealist, Mia. However, as Spain gradually succumbs to the Nationalists, Mia and Guy's commitment to the cause of the Spanish Republic will threaten to break up their bohemian and almost idyllic coexistence. In the end, as Adolf Hitler rises into power, can a war-torn Europe separate the three companions forever?

Format                                   : Matroska
Format version                           : Version 4
File size                                : 7.44 GiB
Duration                                 : 2 h 1 min
Overall bit rate                         : 8 784 kb/s
Movie name                               : Head in the Clouds
Encoded date                             : UTC 2022-06-21 00:20:33
Writing application                      : mkvmerge v67.0.0 ('Under Stars') 64-bit
Writing library                          : libebml v1.4.2 + libmatroska v1.6.4

Video
ID                                       : 1
Format                                   : HEVC
Format/Info                              : High Efficiency Video Coding
Format profile                           : [email protected]@Main
Codec ID                                 : V_MPEGH/ISO/HEVC
Duration                                 : 2 h 1 min
Bit rate                                 : 8 142 kb/s
Width                                    : 3 840 pixels
Height                                   : 2 160 pixels
Display aspect ratio                     : 16:9
Frame rate mode                          : Constant
Frame rate                               : 23.976 (24000/1001) FPS
Color space                              : YUV
Chroma subsampling                       : 4:2:0
Bit depth                                : 8 bits
Bits/(Pixel*Frame)                       : 0.041
Stream size                              : 6.90 GiB (93%)
Title                                    : Head in the Clouds
Default                                  : Yes
Forced                                   : No
Color range                              : Limited
Color primaries                          : BT.709
Transfer characteristics                 : BT.709
Matrix coefficients                      : BT.709

Audio
ID                                       : 2
Format                                   : E-AC-3
Format/Info                              : Enhanced AC-3
Commercial name                          : Dolby Digital Plus
Codec ID                                 : A_EAC3
Duration                                 : 2 h 1 min
Bit rate mode                            : Constant
Bit rate                                 : 640 kb/s
Channel(s)                               : 6 channels
Channel layout                           : L R C LFE Ls Rs
Sampling rate                            : 48.0 kHz
Frame rate                               : 31.250 FPS (1536 SPF)
Compression mode                         : Lossy
Stream size                              : 555 MiB (7%)
Title                                    : Dolby Digital Plus 5.1
Language                                 : English
Service kind                             : Complete Main
Default                                  : No
Forced                                   : No

Text
ID                                       : 3
Format                                   : UTF-8
Codec ID                                 : S_TEXT/UTF8
Codec ID/Info                            : UTF-8 Plain Text
Duration                                 : 1 h 58 min
Bit rate                                 : 46 b/s
Count of elements                        : 1441
Stream size                              : 40.5 KiB (0%)
Title                                    : SDH
Language                                 : English
Default                                  : No
Forced                                   : No

YouTube Video:   
Category:Movies
Language:English  English
Total Size:7.44 GB
Info Hash:AF0055C5ED6496FF30B0FAC1A8F95DB89AE4212F
Added By:gerald99 VIP
Date Added:2022-06-22 22:15:42
Torrent Status:Torrent Verified


Ratings:Not Yet Rated (Log in to rate it)


Tracker:
udp://tracker.opentrackr.org:1337/announce

This Torrent also has backup trackers
URLSeedersLeechersCompleted
udp://tracker.opentrackr.org:1337/announce63410
udp://fe.dealclub.de:6969/announce3326
udp://bt2.archive.org:6969/announce5296
udp://movies.zsw.ca:6969/announce3326
udp://tracker.zerobytes.xyz:1337/announce000
udp://tracker.0x.tf:6969/announce3335
udp://tracker.altrosky.nl:6969/announce4316
udp://open.stealth.si:80/announce4910
udp://tracker.torrent.eu.org:451/announce5229
udp://ipv4.tracker.harry.lu:80/announce63312
udp://p4p.arenabg.com:1337/announce250
udp://tracker.moeking.me:6969/announce000
udp://tracker.dler.org:6969/announce000


File List: 





Comments
No comments still posted