Download Kick-Ass 2010 BDRip 2160p UHD HDR Eng TrueHD DD5 1 gerald99 torrent - GloDLS
HTML tutorial
Torrent Details For "Kick-Ass 2010 BDRip 2160p UHD HDR Eng TrueHD DD5 1 gerald99"

Kick-Ass 2010 BDRip 2160p UHD HDR Eng TrueHD DD5 1 gerald99

To download this torrent, you need a BitTorrent client: Vuze or BTGuard
Download this torrent
Download using Magnet Link

Health:
Seeds: 1
Leechers: 25
Completed: 72 
Last Checked: 11-07-2021 16:20:44

Uploader Reputation points : 444





Write a Review for the Uploader:   10   Say Thanks with one good review:
Share on Facebook


Details
Name:Kick-Ass 2010 BDRip 2160p UHD HDR Eng TrueHD DD5 1 gerald99
Description:

Kick-Ass.2010.BDRip.2160p.UHD.HDR.Eng.TrueHD.DD5.1.gerald99


https://www.imdb.com/title/tt1250777/

Video
ID                                       : 1
Format                                   : HEVC
Format/Info                              : High Efficiency Video Coding
Format profile                           : Main [email protected]@High
HDR format                               : SMPTE ST 2086, HDR10 compatible
Codec ID                                 : V_MPEGH/ISO/HEVC
Duration                                 : 1 h 57 min
Bit rate                                 : 20.7 Mb/s
Width                                    : 3 840 pixels
Height                                   : 2 160 pixels
Display aspect ratio                     : 16:9
Frame rate mode                          : Constant
Frame rate                               : 23.976 (24000/1001) FPS
Color space                              : YUV
Chroma subsampling                       : 4:2:0 (Type 2)
Bit depth                                : 10 bits
Bits/(Pixel*Frame)                       : 0.104
Stream size                              : 17.0 GiB (78%)
Title                                    : Kick-Ass
Default                                  : Yes
Forced                                   : No
Color range                              : Limited
Color primaries                          : BT.2020
Transfer characteristics                 : PQ
Matrix coefficients                      : BT.2020 non-constant
Mastering display color primaries        : Display P3
Mastering display luminance              : min: 0.0050 cd/m2, max: 1000 cd/m2
Maximum Content Light Level              : 1000 cd/m2
Maximum Frame-Average Light Level        : 266 cd/m2

Audio #1
ID                                       : 2
Format                                   : MLP FBA 16-ch
Format/Info                              : Meridian Lossless Packing FBA with 16-channel presentation
Commercial name                          : Dolby TrueHD with Dolby Atmos
Codec ID                                 : A_TRUEHD
Duration                                 : 1 h 57 min
Bit rate mode                            : Variable
Bit rate                                 : 4 854 kb/s
Maximum bit rate                         : 9 444 kb/s
Channel(s)                               : 8 channels
Channel layout                           : L R C LFE Ls Rs Lb Rb
Sampling rate                            : 48.0 kHz
Frame rate                               : 1 200.000 FPS (40 SPF)
Compression mode                         : Lossless
Stream size                              : 3.99 GiB (18%)
Title                                    : TrueHD with Dolby Atmos 7.1
Language                                 : English
Default                                  : Yes
Forced                                   : No
Number of dynamic objects                : 15
Bed channel count                        : 1 channel
Bed channel configuration                : LFE

Audio #2
ID                                       : 3
Format                                   : AC-3
Format/Info                              : Audio Coding 3
Commercial name                          : Dolby Digital
Format settings                          : Dolby Surround EX
Codec ID                                 : A_AC3
Duration                                 : 1 h 57 min
Bit rate mode                            : Constant
Bit rate                                 : 640 kb/s
Channel(s)                               : 6 channels
Channel layout                           : L R C LFE Ls Rs
Sampling rate                            : 48.0 kHz
Frame rate                               : 31.250 FPS (1536 SPF)
Compression mode                         : Lossy
Stream size                              : 539 MiB (2%)
Title                                    : Dolby Digital 5.1
Language                                 : English
Service kind                             : Complete Main
Default                                  : No
Forced                                   : No

Audio #3
ID                                       : 4
Format                                   : AC-3
Format/Info                              : Audio Coding 3
Commercial name                          : Dolby Digital
Format settings                          : Dolby Surround
Codec ID                                 : A_AC3
Duration                                 : 1 h 57 min
Bit rate mode                            : Constant
Bit rate                                 : 192 kb/s
Channel(s)                               : 2 channels
Channel layout                           : L R
Sampling rate                            : 48.0 kHz
Frame rate                               : 31.250 FPS (1536 SPF)
Compression mode                         : Lossy
Stream size                              : 162 MiB (1%)
Title                                    : Commentary by director Mathew Vaughn
Language                                 : English
Service kind                             : Complete Main
Default                                  : No
Forced                                   : No

Text #1
ID                                       : 5
Format                                   : PGS
Muxing mode                              : zlib
Codec ID                                 : S_HDMV/PGS
Codec ID/Info                            : Picture based subtitle format used on BDs/HD-DVDs
Duration                                 : 1 h 50 min
Bit rate                                 : 38.4 kb/s
Count of elements                        : 2640
Stream size                              : 30.3 MiB (0%)
Language                                 : English
Default                                  : No
Forced                                   : No

Text #2
ID                                       : 6
Format                                   : PGS
Muxing mode                              : zlib
Codec ID                                 : S_HDMV/PGS
Codec ID/Info                            : Picture based subtitle format used on BDs/HD-DVDs
Duration                                 : 1 h 50 min
Bit rate                                 : 41.2 kb/s
Count of elements                        : 2902
Stream size                              : 32.5 MiB (0%)
Language                                 : English
Default                                  : No
Forced                                   : No

Text #3
ID                                       : 7
Format                                   : PGS
Muxing mode                              : zlib
Codec ID                                 : S_HDMV/PGS
Codec ID/Info                            : Picture based subtitle format used on BDs/HD-DVDs
Duration                                 : 1 h 57 min
Bit rate                                 : 38.5 kb/s
Count of elements                        : 3006
Stream size                              : 32.2 MiB (0%)
Language                                 : Spanish
Default                                  : No
Forced                                   : No

Screen


YouTube Video:   
Category:Movies
Language:English  English
Total Size:21.98 GB
Info Hash:1500D1858288FE9D527E1DABFE3AAF3B9EB00997
Added By:gerald99 VIP
Date Added:2021-06-18 21:07:13
Torrent Status:Torrent Verified


Ratings:Not Yet Rated (Log in to rate it)


Tracker:
udp://tracker.opentrackr.org:1337/announce

This Torrent also has backup trackers
URLSeedersLeechersCompleted
udp://tracker.opentrackr.org:1337/announce1772
udp://tracker.torrent.eu.org:451/announce020
udp://open.stealth.si:80/announce030
udp://retracker.lanta-net.ru:2710/announce020
udp://inferno.demonoid.is:3391/announce010
udp://fe.dealclub.de:6969/announce010
udp://tracker.uw0.xyz:6969/announce020
udp://tracker.openbittorrent.com:80/announce030
udp://code2chicken.nl:6969/announce010
udp://mail.realliferpg.de:6969/announce010
udp://opentor.org:2710/announce020
udp://explodie.org:6969/announce000


File List: 





Comments

[Report] Posted: 18-06-2021 at 17:10:19
turtle76

avatar

profile message
Thank you gerald99 :good: