Download Quantum of Solace 2008 BRRip 2160p UHD HDR MultiSubs DD5 1 gerald99 torrent - GloDLS
Torrent Details For "Quantum of Solace 2008 BRRip 2160p UHD HDR MultiSubs DD5 1 gerald99"

Quantum of Solace 2008 BRRip 2160p UHD HDR MultiSubs DD5 1 gerald99

To download this torrent, you need a BitTorrent client: Vuze or BTGuard
Download this torrent
Download using Magnet Link

Health:
Seeds: 20
Leechers: 13
Completed:
Last Checked: 14-05-2022 12:46:57

Uploader Reputation points : 1019





Write a Review for the Uploader:   10   Say Thanks with one good review:
Share on Facebook


Details
Name:Quantum of Solace 2008 BRRip 2160p UHD HDR MultiSubs DD5 1 gerald99
Description:


https://www.imdb.com/title/tt0830515/
2008 PG-13 1h 46m Action Adventure Thriller
Stars Daniel Craig Olga Kurylenko Mathieu Amalric
Tagline Have Regrets. Get Revenge.
Additional Subs: Arabic, Bulgarian, Chinese(Cantonese), Chinese(Mandarin Traditional), Croation, Czech, Danish, Dutch, Estonian, Finnish, French, German, Greek(modern, 1453-)(el), Hebrew, Hungarian, Icelandic, Italian, Japanese, Kazakh, Korean, Latvian, Lithuanian, Norwegian, Polish, Portuguses, Romanian, Russian, Serbian, Slovenian, Spanish(Castilian), Spanish(Latin American), Swedish, Turkish, Ukrainian.

Storyline
Is there solace in revenge? James Bond (Daniel Craig) and M (Dame Judi Dench) sniff a shadowy international network of power and corruption reaping billions. As Bond pursues the agents of an assassination attempt on M, all roads lead to Dominic Greene (Mathieu Amalric), a world-renowned developer of green technology. Greene, a nasty piece of work, is intent on securing a barren area of Bolivia in exchange for helping a strongman stage a coup there. The C.I.A. looks the other way, and only Bond, with help from a retired spy and a mysterious beauty, stands in Greene's way. M wonders if she can trust Bond, or if vengeance possesses him. Can anyone drawn to Bond live to tell the tale?

Format                                   : Matroska
Format version                           : Version 4
File size                                : 7.83 GiB
Duration                                 : 1 h 46 min
Overall bit rate                         : 10.6 Mb/s
Movie name                               : Quantum of Solace
Encoded date                             : UTC 2022-05-13 13:22:49
Writing application                      : mkvmerge v66.0.0 ('Josie') 64-bit
Writing library                          : libebml v1.4.2 + libmatroska v1.6.4

Video
ID                                       : 1
Format                                   : HEVC
Format/Info                              : High Efficiency Video Coding
Format profile                           : Main [email protected]@High
HDR format                               : SMPTE ST 2086, HDR10 compatible
Codec ID                                 : V_MPEGH/ISO/HEVC
Duration                                 : 1 h 46 min
Bit rate                                 : 9 629 kb/s
Width                                    : 3 840 pixels
Height                                   : 2 160 pixels
Display aspect ratio                     : 16:9
Frame rate mode                          : Constant
Frame rate                               : 23.976 (24000/1001) FPS
Color space                              : YUV
Chroma subsampling                       : 4:2:0 (Type 2)
Bit depth                                : 10 bits
Bits/(Pixel*Frame)                       : 0.048
Stream size                              : 7.14 GiB (91%)
Title                                    : Quantum of Solace
Default                                  : Yes
Forced                                   : No
Color range                              : Limited
Color primaries                          : BT.2020
Transfer characteristics                 : PQ
Matrix coefficients                      : BT.2020 non-constant
Mastering display color primaries        : Display P3
Mastering display luminance              : min: 0.0001 cd/m2, max: 1000 cd/m2

Audio
ID                                       : 2
Format                                   : AC-3
Format/Info                              : Audio Coding 3
Commercial name                          : Dolby Digital
Codec ID                                 : A_AC3
Duration                                 : 1 h 46 min
Bit rate mode                            : Constant
Bit rate                                 : 640 kb/s
Channel(s)                               : 6 channels
Channel layout                           : L R C LFE Ls Rs
Sampling rate                            : 48.0 kHz
Frame rate                               : 31.250 FPS (1536 SPF)
Compression mode                         : Lossy
Stream size                              : 486 MiB (6%)
Title                                    : Dolby Digital 5.1
Language                                 : English
Service kind                             : Complete Main
Default                                  : No
Forced                                   : No

Text #1
ID                                       : 3
Format                                   : PGS
Muxing mode                              : zlib
Codec ID                                 : S_HDMV/PGS
Codec ID/Info                            : Picture based subtitle format used on BDs/HD-DVDs
Duration                                 : 1 h 37 min
Bit rate                                 : 28.0 kb/s
Count of elements                        : 1866
Stream size                              : 19.5 MiB (0%)
Language                                 : English
Default                                  : No
Forced                                   : No


YouTube Video:   
Category:Movies
Language:English  English
Total Size:7.83 GB
Info Hash:E37D8794660E7AED810C690CEF6DA0E4EAC9B729
Added By:gerald99 VIP
Date Added:2022-05-14 19:36:52
Torrent Status:Torrent Verified


Ratings:Not Yet Rated (Log in to rate it)


Tracker:
udp://tracker.opentrackr.org:1337/announce

This Torrent also has backup trackers
URLSeedersLeechersCompleted
udp://tracker.opentrackr.org:1337/announce322
udp://fe.dealclub.de:6969/announce231
udp://bt2.archive.org:6969/announce321
udp://movies.zsw.ca:6969/announce221
udp://tracker.zerobytes.xyz:1337/announce311
udp://tracker.0x.tf:6969/announce211
udp://tracker.altrosky.nl:6969/announce221
udp://open.stealth.si:80/announce301


File List: 





Comments
No comments still posted