Download Sleepy Hollow 1999 BDRip 2160p SDR DD5 1 gerald99 torrent - GloDLS
Login
Username:
Password:
Remember Me:
[Signup]
[Recover Account]
Friends
Angie Torrents
Friendly Site

Pirateiro
Friendly site

Free Courses Online
Friendly site

ETTV
Friendly site

ProStyleX
Friendly site

KaranPC
Friendly site

P2PDL.com
Friendly site

OneHack
Friendly site

IGGGames
Friendly site

Torrent Details For "Sleepy Hollow 1999 BDRip 2160p SDR DD5 1 gerald99"

Sleepy Hollow 1999 BDRip 2160p SDR DD5 1 gerald99

To download this torrent, you need a BitTorrent client: Vuze or BTGuard
Download this torrent
Download using Magnet Link

Health:
Seeds: 190
Leechers: 96
Completed: 353 
Last Checked: 05-08-2022 17:27:13

Uploader Reputation points : 1178





Write a Review for the Uploader:   10   Say Thanks with one good review:
Share on Facebook


Details
Name:Sleepy Hollow 1999 BDRip 2160p SDR DD5 1 gerald99
Description:

Topaz AI Upscale

https://www.imdb.com/title/tt0162661/
1999 R 1h45m Fantasy Horror Mystery
Director Tim Burton
Stars Johnny Depp Christina Ricci Miranda Richardson  
Tagline Who will it come for next?!

Storyline
The curse of The Headless Horseman (Christopher Walken) is the legacy of the small town of Sleepy Hollow. Spearheaded by the eager Constable Ichabod Crane (Johnny Depp) and his new world ways into the quagmire of secrets and murder, secrets once laid to rest, best forgotten and now reawakened, and he too, holding a dark secret of a past once gone.

Format                                   : Matroska
Format version                           : Version 4
File size                                : 7.60 GiB
Duration                                 : 1 h 45 min
Overall bit rate                         : 10.3 Mb/s
Movie name                               : Sleepy Hollow
Encoded date                             : UTC 2022-08-05 02:15:49
Writing application                      : mkvmerge v67.0.0 ('Under Stars') 64-bit
Writing library                          : libebml v1.4.2 + libmatroska v1.6.4

Video
ID                                       : 1
Format                                   : HEVC
Format/Info                              : High Efficiency Video Coding
Format profile                           : Main [email protected]@Main
Codec ID                                 : V_MPEGH/ISO/HEVC
Duration                                 : 1 h 45 min
Bit rate                                 : 9 690 kb/s
Width                                    : 3 840 pixels
Height                                   : 2 160 pixels
Display aspect ratio                     : 16:9
Frame rate mode                          : Constant
Frame rate                               : 23.976 (24000/1001) FPS
Color space                              : YUV
Chroma subsampling                       : 4:2:0
Bit depth                                : 10 bits
Bits/(Pixel*Frame)                       : 0.049
Stream size                              : 7.12 GiB (94%)
Title                                    : Sleepy Hollow
Default                                  : Yes
Forced                                   : No
Color range                              : Limited
Color primaries                          : BT.709
Transfer characteristics                 : BT.709
Matrix coefficients                      : BT.709

Audio
ID                                       : 2
Format                                   : AC-3
Format/Info                              : Audio Coding 3
Commercial name                          : Dolby Digital
Codec ID                                 : A_AC3
Duration                                 : 1 h 45 min
Bit rate mode                            : Constant
Bit rate                                 : 640 kb/s
Channel(s)                               : 6 channels
Channel layout                           : L R C LFE Ls Rs
Sampling rate                            : 48.0 kHz
Frame rate                               : 31.250 FPS (1536 SPF)
Bit depth                                : 16 bits
Compression mode                         : Lossy
Stream size                              : 482 MiB (6%)
Title                                    : Dolby Digital 5.1
Language                                 : English
Service kind                             : Complete Main
Default                                  : Yes
Forced                                   : No

Text
ID                                       : 3
Format                                   : UTF-8
Codec ID                                 : S_TEXT/UTF8
Codec ID/Info                            : UTF-8 Plain Text
Duration                                 : 1 h 35 min
Bit rate                                 : 37 b/s
Count of elements                        : 762
Stream size                              : 26.2 KiB (0%)
Language                                 : English
Default                                  : No
Forced                                   : No

YouTube Video:   
Category:Movies
Language:English  English
Total Size:7.60 GB
Info Hash:B901E005C630C51DBA6CF41F6F4C9CBFACAB73B0
Added By:gerald99 VIP
Date Added:2022-08-05 21:49:47
Torrent Status:Torrent Verified


Ratings:Not Yet Rated (Log in to rate it)


Tracker:
udp://tracker.opentrackr.org:1337/announce

This Torrent also has backup trackers
URLSeedersLeechersCompleted
udp://tracker.opentrackr.org:1337/announce441881
udp://fe.dealclub.de:6969/announce19932
udp://bt2.archive.org:6969/announce850
udp://movies.zsw.ca:6969/announce17930
udp://tracker.0x.tf:6969/announce141030
udp://tracker.altrosky.nl:6969/announce18932
udp://open.stealth.si:80/announce411781
udp://ipv4.tracker.harry.lu:80/announce291967


File List: 





Comments
No comments still posted